<?xml version="1.0" standalone="no"?>
<!DOCTYPE svg PUBLIC "-//W3C//DTD SVG 1.1//EN" "http://www.w3.org/Graphics/SVG/1.1/DTD/svg11.dtd" >
<svg xmlns="http://www.w3.org/2000/svg" xmlns:xlink="http://www.w3.org/1999/xlink" version="1.1">
<metadata>
Created by FontForge 20190801 at Fri Nov 22 14:28:32 2019
 By www-data
Edwards (JunCreative). 2019. All Rights Reserved
</metadata>
<defs>
<font id="Edwards" horiz-adv-x="752" >
  <font-face 
    font-family="Edwards"
    font-weight="400"
    font-stretch="normal"
    units-per-em="1000"
    panose-1="2 0 5 0 0 0 0 0 0 0"
    ascent="800"
    descent="-200"
    x-height="287"
    cap-height="1010"
    bbox="-1502 -952 2282 1227"
    underline-thickness="50"
    underline-position="-100"
    unicode-range="U+001D-F002"
  />
<missing-glyph horiz-adv-x="500" 
d="M500 0h-402v700h402v-700zM476 24v652h-354v-652h354zM282 222h-15c-12 31 -17 55 -17 72c0 25 13 60 39 106c27 47 40 82 40 106c0 37 -22 60 -60 60c-24 0 -40 -9 -61 -27v22c29 26 55 35 83 35c58 0 99 -31 99 -85c0 -33 -14 -62 -53 -112c-21 -26 -37 -47 -49 -64
c-11 -17 -17 -33 -17 -48c0 -13 4 -34 11 -65zM277 104c-4 0 -7 2 -10 5l-30 35c-2 2 -3 5 -3 8c0 4 1 7 5 11l28 28c3 4 7 5 10 5s6 -2 10 -5l28 -29c3 -4 4 -7 4 -10c0 -4 -2 -7 -5 -11l-27 -30c-5 -5 -8 -7 -10 -7z" />
    <glyph glyph-name="a_r_d_s" unicode="ards" horiz-adv-x="669" 
d="M-33 -1c-31 0 -53 28 -53 60c0 30 16 62 31 88c33 58 98 121 169 121c38 -2 71 -16 83 -52c1 -4 3 -9 3 -14c10 10 20 19 30 30c13 13 20 38 38 38c20 -1 21 -25 23 -48c7 -84 63 -137 136 -137c43 0 90 15 129 33c33 15 52 25 82 51c1 1 3 1 4 1c4 0 6 -2 6 -5
c0 -11 -33 -27 -39 -31c-55 -38 -125 -70 -192 -70c-56 0 -105 20 -136 66c-23 34 -28 60 -30 98c-20 -16 -17 -16 -34 -34c-11 -8 -16 -21 -24 -25c-15 -11 -27 -26 -41 -39c-20 -20 -41 -39 -62 -58c-31 -29 -78 -73 -123 -73zM-28 20c15 0 32 11 44 18
c49 31 89 70 126 107l42 40c-10 25 -31 42 -58 43c-61 0 -115 -61 -145 -110c-8 -12 -34 -50 -34 -75c0 -14 10 -23 25 -23zM605 -12c-8 0 -11 9 -11 19c0 22 6 41 12 62c17 65 39 140 72 202c13 26 24 56 52 60c8 0 13 -6 13 -14c0 -10 -6 -21 -10 -28
c-54 -136 -39 -87 -94 -229c-2 -7 -4 -19 -8 -25c35 42 42 56 80 94c33 36 64 63 105 91c21 14 42 29 66 37c5 2 9 3 14 3c0 0 7 0 10 -2c5 -3 7 -6 7 -10c0 -7 -7 -15 -16 -16c-73 -9 -134 -68 -183 -119c-35 -37 -63 -79 -95 -118c-4 -4 -9 -7 -14 -7zM1277 -336
c-11 0 -63 77 -96 168c-23 67 -30 150 -30 220c0 75 9 136 10 136l1 4c-3 -6 -4 -6 -7 -9c-73 -75 -162 -179 -221 -179c-27 0 -45 19 -45 60c0 73 57 196 136 237c24 13 47 19 66 19c41 0 70 -25 79 -60c16 93 37 185 68 273c-194 -83 -420 -139 -602 -139
c-179 0 -316 54 -337 190c-2 10 -3 21 -3 30c0 19 7 34 24 34c10 0 21 -7 23 -21c4 -31 -8 -64 29 -113c58 -68 165 -96 292 -96c175 0 386 53 560 127c31 12 12 -6 54 92c86 198 199 267 273 267c47 0 79 -28 79 -68c0 -86 -128 -162 -212 -211c-146 -85 -119 -51 -134 -96
c-48 -139 -92 -331 -92 -507c0 -92 12 -180 42 -254c19 -45 36 -67 51 -91l1 -4c0 -4 -4 -9 -9 -9zM938 27c9 0 22 5 38 15c44 27 178 163 178 173c-6 34 -30 62 -62 62c-79 0 -173 -161 -173 -224c0 -16 6 -26 19 -26zM1302 581c86 43 295 150 309 243c0 31 -14 52 -52 52
c-64 0 -172 -73 -257 -295zM1299 -225c-16 1 -27 13 -27 36c0 5 0 10 1 16c5 28 21 68 50 105c-24 103 -52 186 -52 252c0 27 4 50 15 72c21 42 56 66 89 66c23 0 46 -12 61 -39c8 -13 11 -30 11 -48c0 -54 -28 -121 -46 -147c-3 -6 -7 -8 -10 -8c-5 0 -8 4 -8 9
c0 2 1 5 2 7c25 42 36 87 36 122c0 41 -15 70 -43 70c-6 0 -13 -1 -21 -5c-34 -19 -46 -52 -46 -93c0 -60 26 -139 44 -220c72 77 311 282 566 377c84 31 177 46 248 46c66 0 113 -13 113 -36c0 -3 -1 -6 -3 -10c-4 -8 -10 -11 -16 -11c-11 0 -22 8 -28 10
c-29 10 -61 15 -95 15c-253 0 -631 -254 -779 -420c3 -17 4 -33 4 -48c0 -79 -39 -118 -66 -118zM1406 141c0 0 1 0 1 1c0 -1 -1 -1 -1 -1zM1418 252l-1 1zM1300 -206c15 0 31 29 31 76c0 10 -1 20 -2 31c-24 -32 -38 -71 -38 -92c0 -8 2 -13 6 -15h3z" />
    <glyph glyph-name="E_d_w" unicode="Edw" horiz-adv-x="1706" 
d="M253 -110c-57 0 -115 17 -156 56c-56 52 -76 127 -82 201l-1 33c0 98 31 195 84 278c30 45 66 87 109 121c21 17 43 32 67 44c7 5 55 31 68 31l3 -1c-51 45 -73 107 -73 169c0 128 93 259 225 259c18 0 37 -3 56 -8c78 -26 111 -103 111 -177c0 -21 -3 -42 -8 -62
c-5 -16 -20 -35 -34 -35c-8 0 -15 5 -20 18c-1 4 -2 8 -2 11c0 16 10 34 13 49c1 8 2 17 2 26c0 18 -3 36 -9 54c-14 38 -45 71 -84 82c-9 2 -19 3 -29 3c-43 0 -86 -22 -116 -52c-44 -44 -70 -111 -70 -176c0 -48 14 -95 46 -131c9 -11 19 -19 22 -25h4c28 0 43 -17 43 -32
c0 -10 -8 -19 -25 -19h-7c-6 0 -13 0 -19 -1c-15 -3 -30 -9 -45 -15c-38 -19 -74 -43 -107 -70c-30 -26 -55 -55 -74 -81c-54 -75 -91 -180 -91 -280c0 -66 16 -130 55 -183c32 -43 77 -59 126 -59c74 0 155 35 210 67c95 54 173 135 223 231c3 6 6 12 11 15c2 2 5 2 8 2
c4 0 7 -1 9 -5c0 -1 0 -2 1 -3c0 -4 -2 -7 -3 -11c-73 -148 -231 -294 -398 -321c-14 -2 -29 -3 -43 -3zM1022 -354c-18 0 -49 61 -58 75c-71 112 -103 231 -103 365c0 45 0 62 5 107l-2 -4c-32 -45 -14 -21 -48 -66c-29 -36 -75 -87 -125 -87c-15 0 -30 5 -41 15
c-15 14 -20 35 -20 57c0 69 40 140 84 184c27 27 57 48 96 48c30 0 57 -13 70 -37c2 -4 4 -7 5 -12c51 170 135 354 239 494c32 41 67 81 112 106c17 9 44 20 68 20c25 0 44 -15 47 -38c1 -7 1 -14 1 -21c-5 -71 -41 -138 -75 -199c-81 -142 -205 -275 -357 -382
c-19 -84 -24 -147 -24 -224c4 -116 32 -213 92 -321c15 -33 16 -31 41 -65c1 -2 1 -4 1 -6c0 -4 -2 -9 -8 -9zM694 59c36 4 59 25 84 52c37 41 73 88 97 141c1 1 2 2 2 4c0 12 -1 9 -6 17c-16 21 -29 29 -48 29c-28 0 -57 -21 -75 -41c-36 -41 -61 -92 -79 -144
c-2 -7 -4 -15 -4 -22c0 -19 8 -36 29 -36zM926 295c42 31 56 41 94 75c70 58 146 136 200 219c13 20 25 41 37 62c38 68 73 135 75 213c0 18 -9 29 -28 29c-29 -1 -56 -17 -77 -32c-43 -34 -74 -79 -102 -126c-83 -135 -157 -286 -199 -440zM1013 5c-15 0 -28 5 -37 20
c-8 13 -10 29 -10 44c1 54 11 97 29 147c14 38 32 84 62 113c6 7 15 12 24 12c14 -1 15 -8 17 -18l-1 -6c-7 -20 -13 -27 -25 -49c-33 -64 -62 -141 -72 -219c0 -16 8 -21 27 -23c7 0 14 3 21 5c82 29 148 100 200 167c9 4 6 16 12 25c4 4 10 8 15 8c12 -1 17 -12 17 -24
c-1 -28 -12 -52 -12 -76c0 -11 2 -22 9 -31c9 -12 27 -19 45 -19c8 0 16 1 24 3c47 10 88 37 121 72c0 0 -7 26 -7 32c2 18 7 37 26 37c33 -8 8 -45 29 -71c16 -20 47 -29 73 -29c48 0 87 25 118 62c2 2 5 6 8 7c3 0 6 0 7 -2c1 0 2 -1 2 -3s-1 -4 -3 -6
c-40 -48 -88 -81 -149 -81c-37 0 -74 14 -99 44c0 -5 -47 -42 -52 -46c-32 -21 -67 -42 -106 -42h-2c-44 0 -78 40 -78 90v6c2 6 5 17 5 22c0 2 0 2 -1 2c-2 0 -6 -4 -14 -15c-57 -63 -97 -108 -161 -138c-17 -9 -41 -20 -62 -20z" />
    <glyph glyph-name=".notdef" horiz-adv-x="500" 
d="M500 0h-402v700h402v-700zM476 24v652h-354v-652h354zM282 222h-15c-12 31 -17 55 -17 72c0 25 13 60 39 106c27 47 40 82 40 106c0 37 -22 60 -60 60c-24 0 -40 -9 -61 -27v22c29 26 55 35 83 35c58 0 99 -31 99 -85c0 -33 -14 -62 -53 -112c-21 -26 -37 -47 -49 -64
c-11 -17 -17 -33 -17 -48c0 -13 4 -34 11 -65zM277 104c-4 0 -7 2 -10 5l-30 35c-2 2 -3 5 -3 8c0 4 1 7 5 11l28 28c3 4 7 5 10 5s6 -2 10 -5l28 -29c3 -4 4 -7 4 -10c0 -4 -2 -7 -5 -11l-27 -30c-5 -5 -8 -7 -10 -7z" />
    <glyph glyph-name=".null" horiz-adv-x="0" 
 />
    <glyph glyph-name=".null" horiz-adv-x="0" 
 />
    <glyph glyph-name="nonmarkingreturn" horiz-adv-x="508" 
 />
    <glyph glyph-name="space" unicode=" " horiz-adv-x="508" 
 />
    <glyph glyph-name="space" unicode="&#xa0;" horiz-adv-x="508" 
 />
    <glyph glyph-name="exclam" unicode="!" horiz-adv-x="266" 
d="M88 -26c-6 0 -12 6 -12 13c1 14 2 28 4 42c1 14 2 28 4 42c2 15 4 30 7 45c2 14 4 28 7 42c5 29 11 57 17 86c7 29 15 57 23 86c16 56 33 111 51 167c18 55 37 111 59 165c6 16 13 31 20 46c4 7 7 14 11 20c3 5 6 9 9 12c4 4 8 8 14 9l5 1l6 -2c4 -2 6 -5 7 -9
c1 -2 1 -4 1 -7l-1 -8c0 -4 -1 -7 -2 -11c-2 -6 -5 -12 -7 -19c-5 -13 -10 -27 -16 -40l-30 -81c-21 -55 -41 -111 -60 -167l-27 -84c-9 -27 -17 -55 -25 -82c-8 -29 -15 -57 -22 -86c-7 -28 -13 -55 -18 -83c-3 -18 -7 -35 -9 -53l-3 -31c0 -4 -1 -7 -4 -9
c-2 -3 -5 -4 -9 -4zM82 -186c-5 0 -9 1 -12 3c-8 5 -12 12 -12 20l1 7c1 4 3 8 6 11l5 4c2 0 4 1 5 2l7 1l6 -1c5 -2 6 -2 10 -6c3 -3 5 -7 6 -11l2 -6l-2 -7l-2 -5c-2 -4 -5 -7 -9 -9c-3 -2 -7 -3 -11 -3z" />
    <glyph glyph-name="quotedbl" unicode="&#x22;" horiz-adv-x="204" 
d="M13 577c-4 0 -7 2 -9 4s-4 6 -4 9l2 22c0 8 2 17 5 25c2 8 5 16 9 23c2 5 5 8 8 12l4 4l2 1c3 2 6 3 9 3c6 0 10 -4 12 -9l1 -4c0 -5 -2 -10 -4 -15c-1 -5 -3 -11 -5 -16l-13 -31c-2 -6 -4 -12 -5 -19c-1 -5 -7 -9 -12 -9zM153 548c-2 0 -3 0 -5 1c-3 1 -7 3 -9 7l-2 7
l1 5c1 8 3 15 6 23s5 16 9 24c3 9 7 18 12 26l7 8l7 6c3 2 7 4 11 4c6 0 11 -3 13 -10l-1 -14l-6 -14c-4 -7 -7 -14 -10 -21l-18 -38c0 -2 -1 -4 -2 -6s-3 -4 -6 -6c-2 -1 -5 -2 -7 -2z" />
    <glyph glyph-name="numbersign" unicode="#" horiz-adv-x="756" 
d="M8 259l-20 181c77 48 164 76 246 106c34 82 66 158 114 231c15 37 104 115 54 28c-84 -127 -136 -265 -124 -236c-8 -20 -18 -8 147 32c74 148 193 299 39 9c11 -2 215 63 222 34c-4 -30 -13 -2 -236 -63c-26 -54 -52 -113 -79 -180c304 96 359 76 -10 -25
c-38 -92 -65 -183 -94 -276c-72 -98 44 242 56 265c-43 -13 -89 -27 -129 -40c-21 -69 -34 -133 -49 -204c-48 -91 11 173 17 193c-166 -54 -150 -57 -154 -55zM-12 440l20 -181c-34 27 126 66 160 80c14 61 34 121 55 177c-186 -62 -247 -109 -235 -76zM332 390
c23 58 51 125 79 182c-50 -13 -103 -28 -149 -43c-23 -59 -43 -121 -61 -179c43 14 90 28 131 40z" />
    <glyph glyph-name="dollar" unicode="$" horiz-adv-x="402" 
d="M228 606v0zM228 606v0v0zM373 663c-3 -3 -8 0 -5 4v0c-3 -3 26 50 -12 118c-46 83 -175 85 -175 -23c0 -113 155 -309 133 -505c-13 -95 -76 -154 -149 -169c-36 -7 -19 8 -25 -24c-2 -10 -9 -33 -11 -39c-4 -14 -10 -33 -23 -26c-8 5 -5 17 -3 33c14 76 33 44 -15 61
c-67 23 -86 88 -88 160c0 9 1 28 4 39c2 12 21 9 20 -2c-6 -64 -3 -140 52 -171c40 -23 87 -19 125 4c130 80 84 247 28 388c-49 114 -132 243 -61 333c24 30 75 46 126 28c-3 6 -3 88 21 94c30 5 4 -59 -1 -76c-1 -6 -5 -20 -11 -22c97 -43 99 -171 70 -205z" />
    <glyph glyph-name="percent" unicode="%" horiz-adv-x="562" 
d="M542 790c16 -6 -5 -23 -46 -68c-206 -221 -261 -308 -416 -585c-64 -115 -60 -118 -71 -118c-8 0 -13 8 -11 14c5 13 121 254 216 398c114 172 306 367 328 359zM330 176c26 -61 -41 -121 -88 -91c-56 34 4 152 35 145c5 -2 8 -7 3 -15c10 6 39 -14 50 -39zM312 168
c0 1 -1 1 -1 1s1 0 1 -1zM295 190c-1 0 -1 0 -1 1c0 -1 0 -1 1 -1zM316 140c3 47 -37 57 -40 61c-3 5 1 8 -4 -1c-68 -123 33 -121 44 -60zM295 687c-67 -46 -126 70 -46 133c29 23 39 10 37 2c14 -1 44 -30 48 -56c5 -32 -18 -65 -39 -79zM304 789v0v0zM295 798
c0 1 -1 1 -1 1s1 0 1 -1zM239 742c-5 -44 32 -64 64 -24c14 19 20 32 11 55c-18 35 -36 29 -37 40c-16 -15 -34 -44 -38 -71z" />
    <glyph glyph-name="ampersand" unicode="&#x26;" horiz-adv-x="569" 
d="M79 547v2v-2zM222 805l1 1zM493 132c26 -6 16 -22 -5 -24c-68 -8 -192 51 -254 90c-45 -46 -100 -91 -163 -99c-31 -3 -62 7 -81 32c-40 54 10 149 46 206c45 73 40 48 33 75c-43 161 62 353 164 414c64 39 137 1 77 -145c-37 -89 -139 -207 -205 -306
c33 -68 78 -110 134 -146c1 -1 59 56 125 137c5 6 16 -3 11 -9c-19 -24 -100 -115 -121 -138c85 -50 160 -70 239 -87zM306 816c-1 0 -1 1 -1 1s0 -1 1 -1zM284 828v0v0zM253 824v0v0zM171 754v-1v1zM193 779c-86 -91 -145 -231 -104 -364c69 92 163 195 200 275
c70 148 -12 178 -96 89zM176 174h2h-2zM12 185c-7 -64 73 -98 206 24c-55 39 -95 81 -127 145c-29 -45 -71 -116 -79 -169z" />
    <glyph glyph-name="quotesingle" unicode="'" horiz-adv-x="101" 
d="M72 724c-9 0 -12 6 -12 14c0 11 5 26 8 37c6 21 18 35 28 35c3 0 6 -1 8 -5c1 -2 2 -5 2 -8c0 -14 -12 -37 -17 -51c-4 -10 -7 -22 -17 -22z" />
    <glyph glyph-name="parenleft" unicode="(" horiz-adv-x="286" 
d="M202 849c50 15 -199 -273 -189 -617c4 -152 34 -178 13 -184c-14 -4 -16 16 -26 68c-34 172 -15 296 37 445c50 143 136 279 165 288zM22 128c-1 1 -1 1 -1 2c0 -1 0 -1 1 -2zM21 130v1v-1z" />
    <glyph glyph-name="parenright" unicode=")" horiz-adv-x="224" 
d="M183 699c31 -211 -71 -531 -172 -684c-7 -10 -21 0 -15 9c31 47 86 160 121 289c47 179 57 286 22 458l-17 76c-4 12 17 20 21 5c4 -9 28 -69 40 -153zM152 693c0 -1 1 -2 1 -2s-1 1 -1 2z" />
    <glyph glyph-name="asterisk" unicode="*" horiz-adv-x="173" 
d="M4 759c-1 0 4 0 0 0zM144 729c7 -8 15 -16 7 -23c-10 -10 -18 2 -52 36h-5c0 -7 -3 -20 -6 -47c-3 -15 -3 -32 -17 -32c-19 0 -13 24 -10 64c1 3 0 4 2 6c-1 0 -1 0 -1 1v-2c-7 -6 -32 -32 -40 -32s-12 9 -9 14c11 17 22 28 40 46v2c-39 -2 -48 -2 -49 -3
c-18 0 -12 28 4 21c21 2 6 1 45 3c0 2 1 5 1 7c-4 4 -9 10 -17 19c-9 12 -27 32 -13 36c8 2 42 -32 48 -38v0l2 -2c-3 4 -1 6 1 16s5 21 9 32c6 11 16 10 19 6c5 -6 4 -7 3 -27c-2 -20 -2 -24 -5 -28v0s1 1 2 1c9 8 32 28 40 20c7 -7 -8 -21 -26 -39h-1c1 0 1 0 0 0
c3 1 6 1 15 1c8 0 18 2 21 -7c4 -14 -13 -13 -26 -14h-10v-1v-4c7 -7 19 -21 28 -32z" />
    <glyph glyph-name="plus" unicode="+" horiz-adv-x="172" 
d="M158 518c-6 -2 -59 -4 -59 -4c-18 -48 -23 -57 -29 -70c-5 -11 -25 -7 -22 9c4 23 6 30 15 60c-15 0 -38 1 -52 3c-8 1 -15 4 -13 12s8 9 65 11c6 0 8 1 7 -2c1 1 1 1 1 2c5 14 15 39 23 50c14 19 24 8 26 3c2 -10 -8 -43 -12 -52c19 0 42 2 52 -3c6 -3 8 -14 -2 -19z
" />
    <glyph glyph-name="comma" unicode="," horiz-adv-x="77" 
d="M62 -11l-4 1c-3 2 -4 4 -4 6c0 3 2 7 3 8c5 13 7 24 7 33c0 14 -4 25 -6 33l-1 6c0 10 6 16 13 16s15 -5 19 -15c2 -5 3 -12 3 -18c0 -29 -18 -62 -24 -68c-2 -1 -4 -2 -6 -2z" />
    <glyph glyph-name="hyphen" unicode="-" horiz-adv-x="173" 
d="M31 478c119 3 128 5 128 -8c0 -12 -13 -12 -61 -15c-33 -2 -112 -12 -105 13c2 8 12 9 38 10z" />
    <glyph glyph-name="hyphen" unicode="&#xad;" horiz-adv-x="173" 
d="M31 478c119 3 128 5 128 -8c0 -12 -13 -12 -61 -15c-33 -2 -112 -12 -105 13c2 8 12 9 38 10z" />
    <glyph glyph-name="period" unicode="." horiz-adv-x="113" 
d="M80 23c-20 0 -30 15 -30 30s10 30 30 30s30 -15 30 -30s-10 -30 -30 -30z" />
    <glyph glyph-name="slash" unicode="/" horiz-adv-x="390" 
d="M116 399v1v-1zM365 809c10 -1 11 -11 6 -15c-267 -393 -342 -762 -372 -754c-13 4 -10 8 43 162c125 366 293 611 323 607z" />
    <glyph glyph-name="zero" unicode="0" horiz-adv-x="423" 
 />
    <glyph glyph-name="one" unicode="1" horiz-adv-x="380" 
 />
    <glyph glyph-name="two" unicode="2" horiz-adv-x="370" 
 />
    <glyph glyph-name="three" unicode="3" horiz-adv-x="406" 
 />
    <glyph glyph-name="four" unicode="4" horiz-adv-x="416" 
 />
    <glyph glyph-name="five" unicode="5" horiz-adv-x="533" 
 />
    <glyph glyph-name="six" unicode="6" horiz-adv-x="353" 
 />
    <glyph glyph-name="seven" unicode="7" horiz-adv-x="306" 
 />
    <glyph glyph-name="eight" unicode="8" horiz-adv-x="364" 
 />
    <glyph glyph-name="nine" unicode="9" horiz-adv-x="449" 
 />
    <glyph glyph-name="colon" unicode=":" horiz-adv-x="157" 
d="M127 625c-20 0 -30 15 -30 31c0 15 10 30 30 30s30 -15 30 -30c0 -16 -10 -31 -30 -31zM30 184c-20 0 -30 15 -30 30s10 30 30 30s30 -15 30 -30s-10 -30 -30 -30z" />
    <glyph glyph-name="semicolon" unicode=";" horiz-adv-x="108" 
d="M78 609c-20 0 -30 15 -30 30s10 30 30 30s30 -15 30 -30s-10 -30 -30 -30zM12 136c-7 0 -12 6 -12 12c0 9 11 23 11 58c0 16 6 23 13 23c8 0 17 -9 19 -25v1s1 -1 1 -3c0 -5 -2 -17 -10 -41c-6 -19 -15 -25 -22 -25z" />
    <glyph glyph-name="semicolon" unicode="&#x37e;" horiz-adv-x="108" 
d="M78 609c-20 0 -30 15 -30 30s10 30 30 30s30 -15 30 -30s-10 -30 -30 -30zM12 136c-7 0 -12 6 -12 12c0 9 11 23 11 58c0 16 6 23 13 23c8 0 17 -9 19 -25v1s1 -1 1 -3c0 -5 -2 -17 -10 -41c-6 -19 -15 -25 -22 -25z" />
    <glyph glyph-name="less" unicode="&#x3c;" horiz-adv-x="270" 
d="M257 363c-16 0 -54 4 -141 7c-25 1 -70 3 -95 5c-15 2 -21 9 -21 16s11 16 11 16c1 0 6 2 61 31c91 48 115 67 125 67c6 0 8 -3 8 -9c0 -20 -70 -64 -123 -90c-9 -5 -16 -7 -16 -8c0 -2 11 -2 39 -4c163 -15 165 -11 165 -23c0 -6 -1 -8 -13 -8z" />
    <glyph glyph-name="equal" unicode="=" horiz-adv-x="197" 
d="M73 459c-7 0 -47 0 -54 4c-2 1 -4 4 -4 7s2 7 10 9c15 3 49 3 76 3h39c5 0 10 -5 10 -10c0 -11 -9 -13 -77 -13zM27 354c-27 0 -30 4 -30 11c1 6 -3 5 183 21c7 0 11 -4 11 -11c0 -5 -4 -10 -11 -10c-77 -6 -125 -11 -153 -11z" />
    <glyph glyph-name="greater" unicode="&#x3e;" horiz-adv-x="242" 
d="M46 313l1 1zM9 265c-5 0 -9 4 -9 9c0 2 1 5 4 7c45 34 194 145 214 183c-29 0 -80 -6 -118 -6c-9 0 -13 4 -13 7c0 12 59 14 63 14c37 3 57 5 69 5c19 0 23 -9 23 -17c0 -18 -21 -39 -36 -52c-33 -33 -196 -150 -197 -150zM51 317h-1h1zM51 317h-1h1z" />
    <glyph glyph-name="question" unicode="?" horiz-adv-x="368" 
d="M115 279l1 3s0 -2 -1 -3zM40 80c-9 0 -13 7 -13 19c0 16 7 40 14 66c22 79 46 155 83 227c68 133 176 252 204 338c8 24 12 45 12 62c0 43 -23 67 -59 67c-48 0 -121 -41 -200 -131c-17 -19 -35 -41 -49 -62c-4 -6 -24 -40 -24 -47c0 -3 -3 -5 -5 -5s-3 1 -3 5
c0 8 7 28 36 69c49 71 168 185 253 185c18 0 33 -4 47 -15c23 -18 32 -49 32 -80c0 -23 -4 -46 -11 -65c-19 -54 -48 -102 -96 -174c-225 -339 -191 -459 -221 -459zM169 811l1 1zM33 -9c-9 0 -14 7 -14 14s5 14 14 14c10 0 14 -7 14 -14s-4 -14 -14 -14z" />
    <glyph glyph-name="at" unicode="@" horiz-adv-x="514" 
d="M117 233c-6 0 -91 38 -110 126c-4 19 -7 39 -7 61c0 74 27 160 92 239c53 64 141 100 223 100c72 0 140 -28 176 -86c16 -27 23 -56 23 -85c0 -114 -106 -233 -181 -233c-27 0 -50 15 -63 51c-4 13 -5 25 -5 33v10c0 1 0 2 -1 2c-49 -49 -81 -88 -111 -88
c-16 0 -30 13 -30 35c0 39 56 109 97 109c17 0 29 -10 29 -21c0 -8 -4 -12 -7 -12c-5 0 -5 5 -10 5c-22 0 -69 -55 -75 -85c0 -2 1 -3 3 -3c15 0 100 69 114 96c3 5 7 8 11 8s8 -4 9 -8c0 -7 -4 -24 -4 -48c0 -21 4 -43 21 -57c9 -6 18 -9 28 -9s20 3 30 7
c34 15 50 33 70 58c38 51 54 101 54 145c0 96 -73 151 -168 151c-87 0 -153 -33 -210 -97c-46 -52 -85 -145 -85 -229c0 -67 24 -129 90 -161c3 -1 4 -4 4 -7s-2 -7 -7 -7zM91 265h-1h1zM90 265l-1 1zM245 488h-2h2zM237 487h-1h1zM235 479h-1h1zM229 479h-1h1zM156 392h-1
h1zM158 390h-1h1zM347 373h-1h1z" />
    <glyph glyph-name="A" unicode="A" 
d="M35 -121c-4 0 -5 3 -5 6v7l6 38c0 3 6 35 7 35c5 28 11 56 17 84l18 79l21 80c8 28 15 55 24 82c5 14 9 28 14 41c0 1 0 2 1 3c-30 4 -60 14 -83 33c-25 21 -37 53 -37 86c0 14 2 28 7 42c19 49 68 82 117 94c17 4 35 6 52 6c14 0 29 -2 43 -4c9 20 18 40 28 59
c52 105 117 206 218 269c30 19 61 29 91 29c45 0 86 -24 111 -75c15 -32 21 -68 24 -103c1 -19 2 -38 2 -57c0 -62 -7 -124 -16 -186c66 24 133 44 201 57l9 1l6 -1c4 -1 8 -5 8 -9v-2c-1 -6 -8 -9 -15 -10c-73 -14 -144 -36 -213 -61c-4 -22 -8 -44 -11 -66l-60 -330
c-2 -11 -8 -24 -17 -24h-3c-9 2 -11 11 -11 21v6c1 14 3 29 5 43c-21 94 -67 185 -128 259h-1c-7 0 -68 -26 -75 -29c-26 -9 -52 -17 -78 -25c-46 -13 -93 -24 -140 -24h-17c-19 -53 -35 -107 -49 -161c-15 -53 -27 -107 -39 -161l-27 -123v-3c-1 -3 -2 -6 -5 -6zM149 367
l2 7c23 62 69 184 72 184l-29 1c-14 0 -28 -1 -42 -5c-33 -8 -64 -28 -82 -57c-9 -14 -14 -31 -14 -47c0 -13 4 -27 11 -38c17 -29 50 -38 80 -45h2zM186 364c61 0 122 20 180 39h2c7 3 74 29 81 29l-2 1c-47 63 -130 109 -205 123c-28 -62 -54 -126 -76 -191zM601 210
c9 69 20 139 33 208l13 67c-52 -21 -103 -43 -154 -65c4 0 36 -54 40 -59c12 -21 23 -43 34 -65c13 -28 25 -56 34 -86zM477 443c2 0 4 0 6 1c56 22 113 46 169 67c10 50 18 100 23 150c2 27 6 62 6 98c0 66 -13 135 -69 160c-11 5 -24 7 -36 7s-24 -2 -35 -5
c-29 -9 -55 -26 -81 -43c-63 -44 -106 -107 -144 -172l-30 -56l-30 -63c83 -21 158 -81 215 -140c2 -2 4 -4 6 -4z" />
    <glyph glyph-name="B" unicode="B" horiz-adv-x="1041" 
d="M395 -26l-37 1c-57 4 -113 16 -165 36c-65 25 -133 71 -153 141c-4 14 -6 28 -6 42c0 60 38 115 92 146c46 26 95 39 146 42c-20 50 -41 100 -54 153c-8 34 -12 69 -12 104c0 90 26 180 72 259c79 136 223 235 381 235c20 0 39 -2 59 -5c86 -13 172 -65 172 -158v-11
c-6 -85 -62 -163 -116 -224c-11 -12 -22 -24 -34 -35c-45 -44 -98 -80 -155 -107c43 -9 86 -27 123 -48c22 -13 42 -27 60 -43c45 -41 78 -95 82 -156v-13c0 -38 -8 -76 -22 -112c-1 -4 -2 -8 -4 -11c44 -9 90 -16 135 -16c14 0 28 1 42 2c12 1 23 2 34 5c10 2 20 6 30 9h4
c6 0 11 -4 11 -10v-2c0 -5 -5 -8 -9 -10c-17 -7 -33 -12 -51 -15c-21 -4 -42 -6 -63 -6c-33 0 -67 4 -100 10c-15 2 -30 5 -45 8l-3 -6c-8 -15 -18 -29 -28 -42c-9 -12 -20 -23 -32 -34c-11 -11 -23 -22 -36 -31c-91 -65 -205 -98 -318 -98zM338 243l19 104
c-16 3 -32 4 -49 5c12 -34 23 -69 30 -109zM405 1l46 2c122 8 253 61 318 170l11 19c-33 9 -66 19 -98 30c-95 33 -182 86 -280 115l-8 2c-4 -14 -7 -28 -10 -42c-15 -61 -23 -122 -32 -183c-1 -10 -2 -23 -14 -24h-2c-10 0 -14 8 -14 16v3c1 25 6 49 7 74v5
c0 23 -6 46 -12 68c-4 17 -10 33 -16 50c-1 4 -14 46 -17 46c-28 -1 -56 -5 -83 -11c-70 -18 -143 -66 -143 -145l1 -12c4 -50 40 -94 82 -120c45 -28 99 -42 150 -52c37 -7 75 -11 114 -11zM792 217c4 11 8 21 11 32c7 23 11 48 11 73c0 51 -16 102 -50 140
c-51 56 -129 74 -199 93l-25 7c-5 1 -10 2 -15 4c-8 3 -13 10 -13 18v3c3 12 17 13 29 13c71 41 141 88 198 148c47 51 113 144 113 225c0 20 -4 39 -13 57c-13 25 -38 41 -64 53c-38 17 -80 25 -122 25c-48 0 -97 -10 -141 -30c-144 -63 -250 -204 -276 -359
c-3 -22 -5 -44 -5 -65c0 -87 28 -165 59 -250c2 -7 5 -15 8 -22c22 0 44 -3 65 -7c9 37 18 74 29 110c9 32 20 63 31 94c11 32 23 64 36 95s26 62 41 93c15 32 31 64 50 95c5 8 10 15 16 22c3 5 7 8 12 12c2 1 4 3 7 4l4 1l6 -2c3 -1 5 -3 6 -6l2 -6c0 -4 -2 -7 -3 -10
c-1 -4 -2 -7 -4 -11l-74 -160c-26 -62 -51 -124 -74 -187c-15 -42 -28 -84 -40 -126l-7 -26c84 -22 157 -64 236 -98c28 -11 56 -22 85 -31c11 -4 23 -8 34 -11c12 -4 24 -7 36 -10z" />
    <glyph glyph-name="C" unicode="C" horiz-adv-x="637" 
d="M519 1078l2 1c0 -1 -1 -1 -2 -1zM445 1030l1 1zM275 850l1 1zM46 241l-1 2zM418 78l1 1zM267 27h-17c-180 22 -248 125 -248 259c0 277 290 687 464 790c48 33 101 51 148 51c86 0 155 -56 155 -179v-8c-10 -117 -72 -216 -141 -310c-5 -14 -29 -36 -44 -36
c-7 0 -13 5 -13 20l1 10c53 64 109 143 144 223c10 27 19 60 24 95l1 18c0 8 -1 16 -3 31c-2 14 -6 28 -12 42c-4 9 -9 17 -15 25l-19 18c-9 6 -18 11 -28 15c-8 2 -16 6 -36 9h-14c-13 0 -26 -1 -38 -2c-16 -4 -35 -11 -57 -20c-197 -103 -478 -505 -478 -782
c0 -79 23 -148 78 -197c14 -10 32 -21 56 -31c22 -8 41 -13 71 -16c13 -1 27 -2 41 -2c17 0 34 1 53 3c27 5 54 15 80 26c78 38 149 89 223 148l5 1c3 0 5 -1 6 -7c-89 -81 -193 -169 -318 -191h-1s-37 -3 -68 -3z" />
    <glyph glyph-name="D" unicode="D" horiz-adv-x="791" 
d="M197 -116c-116 0 -189 86 -189 169c0 71 53 139 177 152c22 176 64 346 126 509l-1 -4c12 25 64 184 102 184c3 0 7 -2 10 -5l1 -2c3 -5 3 -3 3 -5v-1c1 -2 1 -3 1 -5c-62 -56 -226 -630 -202 -638c82 197 174 396 298 565c-1 0 -1 -1 -2 -2c47 65 95 95 136 95
c69 0 121 -81 121 -213c0 -134 -53 -321 -194 -532c25 0 51 2 76 5c0 1 1 1 1 1c42 1 148 33 146 46c2 0 4 -1 6 -3c-26 -39 -108 -47 -152 -60c-31 -5 -65 -8 -91 -8c-142 -184 -273 -248 -373 -248zM184 -81c13 0 24 2 34 3c29 5 58 14 77 22c38 19 74 44 103 67
c44 36 86 77 119 118l3 4c-103 4 -200 35 -297 43c-8 -28 -14 -51 -18 -72v-4c0 -2 0 -4 -2 -5c-3 -19 -1 -43 -16 -43l-8 2c-5 11 -7 24 -7 36c0 30 10 61 10 85v2l-29 -3c-25 -5 -31 -7 -45 -13c-15 -6 -22 -12 -28 -17c-12 -9 -17 -16 -21 -21c-13 -18 -16 -27 -19 -35
c-6 -17 -6 -25 -7 -32l-1 -11l1 -12c3 -14 8 -27 14 -40c5 -11 12 -21 20 -30l12 -13c11 -7 23 -13 35 -18c17 -6 35 -10 53 -12zM535 152c3 4 6 7 8 11c100 141 172 305 194 473c2 17 2 33 2 49c0 22 -1 43 -4 62c-4 21 -9 43 -18 63c-5 10 -10 19 -17 28l-16 15
c-4 3 -9 5 -14 8c-8 3 -11 3 -12 3h-19c-19 -4 -14 -4 -23 -7c-10 -5 -20 -11 -30 -18c-145 -143 -256 -401 -354 -636c105 -11 204 -47 303 -51z" />
    <glyph glyph-name="E" unicode="E" horiz-adv-x="667" 
d="M253 -110c-57 0 -115 17 -156 56c-56 52 -76 127 -82 201l-1 33c0 98 31 195 84 278c30 45 66 87 109 121c21 17 43 32 67 44c7 5 55 31 68 31l3 -1c-51 45 -73 107 -73 169c0 128 93 259 225 259c18 0 37 -3 56 -8c78 -26 111 -103 111 -177c0 -21 -3 -42 -8 -62
c-5 -16 -20 -35 -34 -35c-8 0 -15 5 -20 18c-1 4 -2 8 -2 11c0 16 10 34 13 49c1 8 2 17 2 26c0 18 -3 36 -9 54c-14 38 -45 71 -84 82c-9 2 -19 3 -29 3c-43 0 -86 -22 -116 -52c-44 -44 -70 -111 -70 -176c0 -48 14 -95 46 -131c9 -11 19 -19 22 -25h4c28 0 43 -17 43 -32
c0 -10 -8 -19 -25 -19h-7c-6 0 -13 0 -19 -1c-15 -3 -30 -9 -45 -15c-38 -19 -74 -43 -107 -70c-30 -26 -55 -55 -74 -81c-54 -75 -91 -180 -91 -280c0 -66 16 -130 55 -183c32 -43 77 -59 126 -59c74 0 155 35 210 67c95 54 173 135 223 231c3 6 6 12 11 15c2 2 5 2 8 2
c4 0 7 -1 9 -5c0 -1 0 -2 1 -3c0 -4 -2 -7 -3 -11c-73 -148 -231 -294 -398 -321c-14 -2 -29 -3 -43 -3z" />
    <glyph glyph-name="F" unicode="F" horiz-adv-x="458" 
d="M-103 -55c-2 0 -5 1 -7 4l-1 21c0 106 55 305 70 389c1 29 2 67 2 91c-12 -3 -36 -8 -36 -8c-10 -4 -24 -6 -35 -6c-12 0 -21 3 -21 9c0 2 2 6 6 10c30 15 60 20 84 28c-1 25 -5 47 -8 64c-11 47 -28 93 -47 132c-36 66 -83 126 -140 167c-34 14 -48 28 -48 43
c0 81 462 161 527 173c18 41 49 70 64 70c5 0 8 -3 8 -10c0 -10 -5 -27 -19 -52c169 23 342 34 508 56c9 -3 13 -6 13 -9c0 -29 -444 -57 -539 -83c-87 -171 -168 -348 -227 -528c14 7 161 31 230 31c23 0 37 -2 37 -9c0 -4 -6 -10 -21 -18c-91 -12 -173 -27 -259 -45
c-28 -90 -49 -179 -70 -265c-5 -27 -38 -255 -71 -255zM-13 491l8 2c46 159 116 309 187 453l40 78c-155 -33 -313 -69 -455 -131l-12 -6c143 -80 221 -244 232 -396z" />
    <glyph glyph-name="G" unicode="G" horiz-adv-x="726" 
d="M149 -330l-32 2c-45 13 -83 53 -83 104c0 11 2 23 6 35c95 208 359 244 552 329c71 162 164 356 179 551l1 22c0 31 -2 72 -30 72c-15 -6 -20 -11 -33 -22c-48 -45 -90 -100 -131 -156c-5 -65 -31 -128 -68 -188c-5 -7 -23 -27 -32 -27c-1 0 -3 1 -3 3c0 4 3 8 9 18
s75 158 59 147c-58 -95 -131 -144 -185 -144c-45 0 -78 34 -78 104c0 15 2 32 5 50c20 90 111 182 188 182c44 0 83 -30 102 -106c82 118 141 165 179 165c39 0 57 -50 57 -120c0 -64 -15 -146 -42 -223c0 -2 -1 -5 -2 -7v1c-33 -99 -78 -196 -119 -297c67 43 100 59 108 59
c2 0 3 -1 3 -2c0 -8 -51 -48 -121 -80c-29 -64 -59 -132 -102 -195c-87 -129 -217 -277 -387 -277zM373 440c19 2 27 3 62 33c41 36 79 86 114 136c-1 47 -17 99 -64 104c-6 0 -12 -1 -19 -2c-1 0 -11 -2 -21 -7c-37 -20 -93 -66 -122 -149c-4 -13 -7 -27 -8 -41
c0 -9 0 -18 2 -26c8 -31 23 -46 49 -48h7zM141 -294c71 0 153 36 220 96c93 86 163 195 219 313c-102 -40 -215 -75 -316 -129c-65 -33 -130 -75 -173 -141c-5 -8 -15 -24 -22 -41c0 -4 -1 0 -4 -19c5 -54 17 -57 54 -75c7 -2 14 -3 22 -4zM40 -189l1 3z" />
    <glyph glyph-name="H" unicode="H" horiz-adv-x="809" 
d="M151 -16h-1c-7 0 -9 5 -9 11c0 11 6 26 7 31l12 40c17 55 35 110 42 167c2 16 3 33 3 49c0 35 -6 70 -24 99c-21 34 -55 56 -87 80c-10 8 -42 31 -42 46c0 6 4 10 14 13c7 2 15 3 24 3c33 0 74 -13 103 -15c10 -1 79 -9 112 -9c10 0 16 1 17 3l18 45
c45 108 112 231 112 352c0 20 -2 39 -6 59c-5 23 -15 48 -36 59c-7 3 -15 5 -23 5c-18 0 -36 -8 -52 -16c-37 -18 -71 -41 -102 -68c-16 -14 -32 -29 -46 -45c-2 -2 -18 -23 -26 -23c-3 0 -4 1 -5 6v2c0 3 1 5 2 7c1 3 4 6 6 9l16 20c40 42 90 83 139 114c24 15 52 26 79 26
c14 0 28 -3 41 -10c25 -13 41 -39 50 -66c9 -25 12 -51 12 -78c0 -57 -16 -115 -34 -167c-11 -31 -24 -61 -38 -91l-42 -94l-20 -46c2 4 24 3 28 4c15 1 30 2 45 4c30 3 60 9 89 15c59 13 117 32 173 53l37 14l1 1l16 52c17 54 35 108 54 161c9 26 19 52 29 78
c18 46 36 103 69 142c1 1 2 2 2 3c4 4 8 8 14 10l5 1c7 0 10 -6 10 -12c0 -3 -1 -7 -2 -10c-54 -129 -110 -257 -152 -390l-50 -160l-95 -322c-14 -47 -26 -95 -41 -142c-1 -3 -4 -5 -7 -5s-6 2 -7 5l-1 5c0 7 3 16 4 21l6 30c4 20 9 41 14 61c10 40 21 79 32 119l22 82
c15 54 29 108 45 162l24 80c-22 -11 -43 -20 -66 -28c-89 -33 -184 -57 -279 -65c-11 -1 -22 -2 -34 -2l-43 -104c-25 -63 -51 -125 -75 -188l-53 -134c-6 -16 -13 -32 -18 -48c-2 -6 -5 -11 -12 -11zM228 256l38 103l42 109h-13c-33 1 -66 2 -99 4c-19 1 -37 3 -55 5l-30 5
c12 -9 24 -19 36 -29c24 -21 48 -44 63 -73c4 -8 8 -17 10 -25c3 -8 4 -16 5 -24c2 -16 3 -32 3 -49v-26z" />
    <glyph glyph-name="I" unicode="I" horiz-adv-x="381" 
d="M32 8c-4 0 -9 0 -12 2c-4 2 -6 5 -6 8c0 6 7 12 13 14c20 7 42 7 63 8c12 1 24 1 37 1c0 5 2 10 3 15l3 17c11 46 24 92 36 138c31 121 65 242 100 361c34 116 67 235 112 347l8 19c3 7 6 14 10 21c3 5 7 10 13 12l-170 -19l-6 1c-4 2 -5 4 -5 6c0 4 4 8 9 11
c12 6 28 8 41 11c27 6 56 12 84 16c51 8 103 13 155 13h14c6 0 11 -4 12 -10v-3c0 -7 -6 -11 -13 -12c-38 -6 -76 -9 -114 -13c3 -1 5 -2 6 -5c2 -3 2 -7 2 -11c0 -5 -1 -9 -2 -14l-5 -19c-3 -9 -5 -18 -7 -27c-36 -118 -80 -234 -117 -352s-72 -236 -105 -355l-40 -145
c0 -1 0 -2 -1 -3h9c24 0 49 0 74 -2c9 -1 18 -5 18 -14v-1c0 -11 -10 -13 -19 -13h-12c-63 0 -126 -1 -188 -3z" />
    <glyph glyph-name="J" unicode="J" horiz-adv-x="693" 
d="M489 72l1 2zM159 -293h-12c-52 0 -111 23 -130 74c-4 10 -5 20 -5 31c0 21 6 42 17 61c20 35 53 61 86 83c95 63 205 101 315 135c10 3 20 6 28 14c5 5 8 12 11 19c31 70 55 142 79 214c26 80 53 160 68 243c4 23 9 50 9 76c0 28 -5 55 -19 78c-8 14 -22 25 -38 27h-4
c-18 0 -34 -13 -48 -25c-24 -22 -46 -47 -67 -72c-84 -102 -155 -215 -209 -335c-5 3 -7 8 -7 14s2 13 4 18c52 140 144 263 242 375c16 17 32 35 52 48c15 10 33 15 50 15c7 0 13 0 19 -2c28 -8 47 -35 58 -62c10 -26 13 -53 13 -80c0 -29 -4 -59 -9 -87
c-29 -155 -93 -301 -151 -448c66 23 128 58 182 103c4 3 9 7 14 7c2 0 3 0 4 -1c4 -2 5 -4 5 -8c0 -7 -6 -15 -12 -20c-55 -41 -115 -75 -180 -99c-8 -4 -17 -7 -24 -13c-8 -7 -12 -18 -16 -27c-35 -85 -83 -164 -142 -234c-46 -57 -106 -116 -183 -122zM137 -263
c15 2 30 6 44 11c16 6 30 13 44 22c31 23 58 52 83 81c39 48 74 98 103 152c12 22 23 45 33 68l-48 -17c-24 -8 -49 -16 -73 -26c-28 -10 -56 -21 -84 -34s-56 -28 -83 -43c-16 -9 -31 -19 -46 -30c-15 -12 -30 -24 -43 -39c-8 -11 -16 -22 -22 -35l-4 -11l-3 -12
c-1 -9 -1 -17 -1 -26c1 -5 2 -9 4 -14l7 -14l8 -9c8 -6 18 -11 27 -16c8 -3 16 -5 24 -7c6 -1 11 -1 16 -1h14z" />
    <glyph glyph-name="K" unicode="K" horiz-adv-x="644" 
d="M52 198v3v-3zM587 791l3 3zM564 129h-3h3zM56 28c-5 0 -11 6 -12 16c-2 18 -2 36 -2 54c0 74 11 151 21 223c6 40 12 80 19 119l1 6h-1c-6 0 -39 13 -43 16c-13 7 -25 21 -30 35c-2 6 -3 12 -3 18c0 11 3 21 9 28c10 12 24 16 38 16c12 0 24 -3 34 -7l14 -7
c9 46 19 92 30 138l30 119c10 40 20 81 32 122c7 26 14 53 22 79c8 25 18 54 36 74c4 5 9 8 16 9h2c7 0 13 -4 16 -9c2 -4 3 -10 3 -15c0 -15 -6 -32 -10 -43c-5 -21 -12 -42 -18 -62l-36 -118c-24 -78 -46 -157 -65 -237l-21 -87l24 -24c3 -4 7 -8 10 -13l25 9l40 17
c28 15 56 30 83 47c28 18 53 38 78 59c2 1 3 3 5 5v-1c24 21 48 44 70 66l71 72c47 46 102 99 166 119c10 3 21 5 31 5c4 0 8 0 12 -1c21 -5 35 -20 43 -39c5 -12 9 -28 9 -43c0 -6 -1 -13 -3 -19c-3 -10 -15 -21 -27 -21l-6 1c-13 5 -15 22 -15 34v10c0 18 -3 36 -24 37h-2
c-17 0 -34 -9 -48 -17c-30 -17 -58 -39 -84 -62c-25 -21 -48 -44 -72 -67c-23 -22 -47 -45 -71 -66c-25 -23 -51 -45 -79 -66c-26 -19 -54 -36 -82 -51c-29 -15 -58 -31 -89 -42l-15 -6c13 -15 25 -32 37 -48c18 -27 36 -54 53 -81c40 -62 88 -126 154 -161
c29 -15 61 -24 94 -24c37 0 74 12 104 37c5 4 9 8 13 13l12 11c1 2 3 2 4 2c2 0 3 0 4 -1c2 -2 2 -3 2 -5c0 -1 0 -3 -1 -4l-14 -16c-36 -38 -85 -58 -136 -58c-10 0 -21 1 -32 3c-56 8 -106 37 -148 74c-58 51 -99 115 -140 179c-15 24 -30 47 -47 69l-24 -3l-17 -85
c-19 -104 -39 -209 -40 -316c0 -10 -5 -16 -10 -16zM87 468c2 13 4 26 7 39l-11 8c-8 6 -22 13 -34 13c-4 0 -8 0 -11 -2c-7 -3 -10 -10 -10 -16c0 -8 4 -15 9 -20c7 -7 15 -11 23 -15c8 -3 17 -6 26 -7h1zM130 470l-1 2l-1 -2h2z" />
    <glyph glyph-name="L" unicode="L" 
d="M425 705l1 5zM307 476l1 1zM69 56h-3c-27 1 -44 18 -44 40c0 8 3 17 8 26c21 34 71 61 112 61h2c9 0 17 -1 25 -2c4 0 8 0 11 -1c4 5 7 11 10 16l20 38c13 25 25 51 36 78c86 205 126 428 219 630c20 43 38 94 76 124c6 4 13 8 21 8c11 0 15 -6 15 -14
c0 -24 -32 -69 -37 -79c-13 -25 -25 -51 -37 -77c-60 -130 -99 -269 -148 -404c-36 -98 -71 -197 -120 -289l-22 -38c21 -6 45 -10 65 -20c21 -10 43 -18 65 -26c44 -14 90 -24 136 -28l37 -2c25 0 51 3 76 9c58 14 110 50 155 88l19 18c2 2 4 3 6 3l4 -2c2 -2 2 -4 2 -6
c0 -1 0 -3 -1 -4c-17 -16 -34 -32 -52 -47c-4 -4 -9 -7 -14 -11c-64 -50 -145 -78 -226 -78c-23 0 -45 2 -67 6c-77 15 -147 53 -223 73l-8 -11c-8 -11 -16 -21 -25 -31c-25 -27 -56 -48 -93 -48zM367 531l1 5zM310 485l1 1zM62 79c16 0 32 6 45 15l9 6c15 12 27 27 38 41
c1 1 6 11 8 11c-5 1 -10 2 -15 2h-5c-35 -1 -76 -15 -95 -45c-3 -4 -6 -10 -6 -16c0 -3 1 -5 3 -8c4 -4 9 -5 14 -6h4zM423 699l2 5zM365 525l1 3z" />
    <glyph glyph-name="M" unicode="M" horiz-adv-x="775" 
d="M132 286l1 1zM651 211v1v-1zM289 674l2 2zM13 -32c-7 12 -9 27 -9 41c14 258 79 516 167 734c30 74 64 148 117 208c9 10 14 15 26 17c10 0 15 -5 16 -15c0 -5 -2 -9 -4 -13c-156 -277 -263 -608 -301 -929c64 205 130 474 266 664c35 52 81 113 143 133c7 2 15 4 23 4
c39 0 57 -40 57 -80c0 -52 -21 -97 -33 -141c-20 -60 -26 -71 -40 -129c9 9 16 19 24 30c29 40 29 38 55 76c33 44 87 112 136 112c39 0 57 -46 57 -93s-16 -96 -25 -140c-24 -98 -34 -175 -38 -265c0 -20 1 -44 11 -62c4 -12 6 -8 12 -14c13 -5 21 -9 30 -9
c24 0 39 6 64 25c2 1 4 1 5 1c8 0 12 -6 12 -11c0 -9 -5 -9 -14 -15c-20 -12 -43 -21 -66 -21c-31 2 -53 9 -69 35c-12 20 -12 41 -12 66c0 94 18 187 36 279c8 42 17 86 17 129c0 29 -3 68 -27 68c-3 0 -7 -1 -10 -2c-41 -11 -72 -56 -96 -89l-55 -77
c-10 -13 -35 -55 -58 -55c-11 0 -19 11 -19 24c10 103 58 176 63 283c0 28 -10 38 -25 38c-31 0 -82 -47 -102 -70c-162 -191 -220 -452 -306 -699c-6 -15 -13 -32 -28 -38z" />
    <glyph glyph-name="N" unicode="N" horiz-adv-x="596" 
d="M58 17c-12 0 -16 17 -16 38c0 31 7 69 9 78c49 293 121 597 280 839c6 9 16 20 26 20c11 -2 16 -6 16 -18c0 -9 -4 -19 -8 -27c-152 -276 -252 -580 -293 -893c95 241 157 496 300 716c45 69 101 146 168 195c9 6 21 11 32 11c25 0 38 -27 38 -52
c-6 -133 -36 -233 -68 -372c-22 -91 -40 -183 -40 -276c0 -27 2 -53 5 -80c5 -35 17 -66 50 -67c22 0 37 21 57 33c0 0 6 4 9 4c4 -2 6 -2 6 -7c0 -4 -4 -10 -8 -13c-20 -17 -45 -32 -69 -32c-61 0 -80 98 -80 166c6 199 45 316 83 513c6 32 20 74 20 111c0 13 -2 25 -6 36
c-2 4 -2 3 -5 5c-2 0 -5 -2 -6 -3c-67 -47 -113 -116 -159 -183c-144 -214 -203 -458 -303 -702c-5 -11 -10 -23 -19 -31c-8 -6 -14 -9 -19 -9z" />
    <glyph glyph-name="O" unicode="O" horiz-adv-x="475" 
d="M222 -16l-10 1c-46 9 -54 67 -54 112l1 35c4 59 20 117 36 173c9 30 18 60 30 89c3 9 39 79 39 86v1c-4 6 -9 11 -13 16c-8 11 -16 23 -23 35c-7 13 -13 26 -19 39c-11 27 -20 55 -26 83c-2 13 -4 25 -5 37c0 13 1 26 2 39c0 14 2 29 4 43c3 14 7 29 13 43l17 37
c8 13 16 25 25 37c44 60 119 106 195 106c23 0 47 -5 69 -14c50 -21 87 -66 105 -117c5 -14 9 -28 11 -42c3 -17 4 -34 4 -51c0 -39 -6 -78 -13 -116c-5 -28 -12 -55 -19 -83c-13 -48 -28 -96 -44 -144c0 0 -4 -11 -6 -15c-9 -28 -19 -55 -30 -83c-10 -26 -22 -52 -34 -78
c-24 -50 -54 -98 -89 -141c-24 -29 -50 -58 -79 -82c-23 -19 -56 -46 -87 -46zM224 13c6 0 13 3 18 6c120 61 196 189 243 310c32 80 59 163 81 246c8 28 15 55 20 83c6 30 11 61 13 91l1 21c0 24 -3 48 -10 72c-15 49 -49 95 -96 116c-20 9 -43 13 -65 13
c-21 0 -41 -3 -61 -10c-40 -14 -75 -41 -102 -74c-41 -52 -60 -114 -60 -177c0 -55 14 -110 39 -160c8 -16 18 -31 28 -46c0 -1 1 -2 2 -3l1 2c14 27 30 53 47 78l25 34c9 11 18 21 27 30c7 6 13 12 21 17c4 3 8 5 12 7c3 2 7 2 10 2s6 0 9 -1c4 -2 7 -7 7 -12v-2
c0 -7 -4 -14 -9 -20l-10 -12l-22 -26l-21 -26l-19 -26c-15 -23 -29 -47 -42 -71c-2 -5 -4 -9 -7 -13l1 -1c9 -11 19 -21 29 -30c11 -10 21 -18 32 -26l-1 1l7 -5l1 -3v-2l-4 -2h-2c-11 5 -20 13 -30 20s-20 15 -29 24l-11 10l-22 -50c-38 -92 -69 -188 -76 -288l-2 -28
c0 -19 3 -37 10 -54c2 -5 4 -9 8 -12c3 -2 6 -3 9 -3z" />
    <glyph glyph-name="P" unicode="P" horiz-adv-x="273" 
d="M45 -11c-1 0 -3 0 -5 1c-6 3 -8 13 -8 25c0 24 8 56 9 67c15 111 36 227 61 334l1 3c-36 40 -63 88 -63 143c0 25 7 50 23 72c1 1 2 1 3 1c3 0 5 -2 5 -5c-1 -7 -7 -13 -9 -19c-5 -15 -7 -30 -7 -46c0 -45 19 -90 50 -124c1 -1 2 -2 2 -3c35 132 36 128 85 263
c25 71 53 141 82 203c7 14 23 57 44 57c11 0 11 -5 13 -16c0 -12 -9 -28 -13 -38c-5 -17 -11 -33 -18 -50c-48 -122 -63 -162 -103 -289c4 12 9 24 14 36c52 119 127 238 226 323c27 23 62 44 94 44c23 0 45 -11 61 -41c18 -33 24 -77 24 -116c0 -76 -24 -151 -52 -212
c-63 -134 -177 -252 -323 -252c-12 0 -24 1 -36 3c-7 1 -60 18 -60 26c0 0 -2 -3 -2 -5c-21 -86 -17 -76 -38 -163c-15 -74 -17 -78 -37 -160c-3 -19 -5 -25 -10 -44c0 -8 -2 -18 -13 -18zM238 370c102 0 202 85 258 180c48 80 81 179 85 287c0 24 -4 48 -13 71
c-8 19 -20 38 -41 39c-12 0 -23 -5 -33 -11c-62 -36 -116 -95 -156 -154c-81 -134 -126 -212 -185 -378c-1 -2 -2 -4 -2 -6c27 -20 57 -28 87 -28z" />
    <glyph glyph-name="Q" unicode="Q" horiz-adv-x="579" 
d="M206 111c-72 0 -141 36 -164 113c-6 21 -9 42 -9 63c0 41 10 82 21 122c25 86 65 170 122 241c-4 9 -8 18 -11 27c-22 55 -39 114 -39 174c0 18 2 36 5 54c10 54 37 106 80 140c36 29 82 43 128 43c19 0 37 -2 55 -7c63 -15 118 -56 156 -108c32 -43 50 -90 60 -138
c5 -28 8 -57 8 -86c0 -51 -7 -103 -17 -155c-19 -106 -56 -210 -119 -299c-50 -71 -114 -140 -197 -170c-25 -9 -52 -14 -79 -14zM216 135l26 3c11 3 22 5 33 9c10 3 20 8 30 13c14 7 28 15 42 24c14 10 27 20 40 32c8 6 16 14 23 21l25 27l21 25l21 28c15 23 29 46 40 70
c6 12 12 24 17 37l14 37c9 27 17 56 23 84c7 28 13 57 17 85c2 15 5 31 6 47c2 15 3 31 4 47c1 3 1 7 1 10v48c-1 17 -3 33 -6 49c-6 24 -13 48 -24 70l-4 8c-6 13 -13 25 -22 37c-7 11 -16 22 -25 33l-26 27c-9 8 -19 16 -29 23c-8 5 -15 10 -24 14c-8 5 -17 8 -25 12
l-25 6c-8 2 -17 3 -25 4h-30l-29 -3l-23 -6l-24 -10l-19 -11c-7 -4 -13 -9 -19 -14l-18 -18c-5 -6 -10 -12 -14 -18l-14 -24c-4 -8 -12 -29 -12 -31c-4 -11 -7 -23 -9 -35s-3 -24 -4 -35c0 -16 0 -31 1 -46c1 -16 3 -32 6 -48l20 -72c3 -10 7 -20 12 -30c19 22 39 42 62 60
c11 9 22 18 33 26l18 11c7 3 14 7 22 7h4c5 0 10 -4 12 -9v-4l-1 -9l-4 -6l-4 -3l-18 -17l-24 -20c-18 -17 -36 -33 -53 -51c-9 -9 -17 -19 -26 -29c15 -28 32 -55 53 -79l20 -21c1 -1 2 -3 2 -5l-2 -4c-1 -2 -3 -2 -5 -2c-1 0 -3 0 -4 1l-23 24c-18 21 -33 43 -47 66l-4 7
c-4 -5 -8 -10 -11 -16c-8 -10 -14 -21 -21 -32c-8 -13 -15 -27 -22 -40c-6 -13 -12 -25 -17 -38l-17 -40l-9 -26c-7 -19 -13 -39 -17 -60c-5 -22 -9 -45 -11 -68v-26c0 -8 1 -16 3 -24v-4c2 -9 6 -18 10 -27c2 -5 5 -9 8 -14s6 -10 10 -14c3 -4 7 -8 11 -11
c4 -4 8 -7 13 -10l11 -7l13 -6c7 -2 13 -4 20 -5c7 -2 14 -3 21 -4h22zM449 -25h-2c-6 1 -13 9 -17 12l-2 1c-66 45 -141 76 -222 76h-7c-39 -1 -78 -9 -114 -23c-18 -7 -34 -18 -52 -26c-4 -2 -8 -3 -12 -3c-6 0 -12 3 -16 8c-2 3 -3 6 -3 9l2 9c10 24 46 37 69 45
c32 11 66 16 99 16c22 0 44 -2 65 -6c69 -12 136 -46 193 -87l5 -3c5 -4 18 -11 21 -17l1 -3c0 -5 -3 -8 -8 -8z" />
    <glyph glyph-name="R" unicode="R" horiz-adv-x="666" 
d="M20 82c-5 0 -9 4 -11 8v12c8 114 30 228 55 340l3 11c-9 6 -18 14 -26 21c-21 20 -37 42 -39 72c0 9 1 19 5 27c6 13 20 19 33 19c6 0 12 -1 17 -3c14 -4 27 -12 38 -21c8 18 12 39 17 58c23 75 48 150 82 221c16 35 33 70 53 103c13 23 36 72 63 82c4 2 8 2 10 2
c8 0 10 -5 10 -12c0 -11 -6 -27 -9 -33l-35 -68c-56 -109 -104 -221 -143 -337c-1 -5 -14 -37 -14 -45v-1l11 -13c7 20 15 40 24 60c12 29 26 57 41 85s30 56 48 83c17 27 36 54 56 79c19 25 39 50 61 73c37 40 84 78 134 104c16 8 34 13 52 13s35 -5 48 -16
c16 -14 23 -35 27 -56c2 -12 2 -23 2 -35c0 -31 -5 -62 -14 -92c-53 -182 -206 -369 -403 -396l-11 -2l1 -2c15 -27 29 -54 44 -80c33 -59 69 -120 128 -156c34 -20 70 -29 105 -29c66 0 131 30 179 77c2 2 4 3 7 3l5 -2c2 -1 2 -3 2 -6c0 -2 0 -4 -2 -6
c-6 -8 -14 -16 -22 -23c-46 -40 -103 -62 -164 -64h-6c-42 0 -84 10 -120 30c-85 48 -134 142 -179 223l-19 35c-14 1 -27 3 -40 6c-7 -21 -13 -41 -19 -62c-10 -31 -18 -61 -27 -92l-24 -93c-4 -15 -8 -30 -11 -46c-4 -14 -7 -29 -12 -44c-1 -4 -2 -8 -6 -11
c-1 -1 -3 -1 -5 -1zM72 474l15 61c0 3 -19 15 -22 17c-7 5 -15 10 -25 13h-7c-7 -2 -9 -9 -9 -16v-7c0 -19 8 -35 23 -48c2 -1 4 -3 6 -5c6 -5 12 -11 19 -15zM50 221l43 154l17 59l-11 3c-18 -66 -35 -141 -49 -216zM116 456l11 32l-10 13l-12 -42zM150 450l-12 21l-5 -12
l-2 -6zM191 450c120 9 231 96 302 199l3 5c49 71 94 175 104 266v18c-1 36 -12 58 -41 61l-17 -2c-102 -25 -261 -235 -261 -235s-95 -164 -129 -252c15 -19 26 -38 38 -60h1z" />
    <glyph glyph-name="S" unicode="S" horiz-adv-x="662" 
d="M258 29c-6 0 -12 0 -18 1c-21 2 -50 16 -52 41v2c0 32 27 69 47 94c31 36 72 70 117 89c3 1 6 3 9 3c5 0 7 -2 7 -4c0 -7 -18 -21 -22 -24c-21 -15 -44 -29 -63 -46s-36 -36 -53 -55c-12 -14 -24 -30 -26 -48v-5c0 -5 1 -10 3 -14c3 -5 7 -9 12 -11c10 -6 22 -8 33 -8
c21 0 43 7 61 14c95 37 176 108 226 197c19 34 34 73 34 110c0 20 -4 38 -13 56c-27 55 -93 78 -153 87c-51 8 -102 9 -154 9h-73c-22 0 -45 0 -67 1c-23 1 -46 3 -66 12c-21 9 -39 27 -42 49l-1 9c0 16 6 32 14 45c34 65 89 117 147 162c99 74 218 129 340 129l30 -1
c61 -5 126 -27 157 -82l8 -16c6 -15 9 -31 9 -47c0 -57 -35 -114 -79 -148c-4 -3 -9 -6 -14 -6h-2c-7 0 -10 3 -10 8c0 15 27 47 31 53c13 20 24 41 31 64c4 12 7 25 7 39l-1 14c-9 49 -61 77 -109 87c-20 4 -41 6 -61 6c-97 0 -192 -41 -273 -95
c-73 -47 -139 -106 -184 -179c-7 -11 -13 -22 -13 -35l1 -7c5 -27 39 -35 67 -36c35 -2 70 -2 105 -2h30c60 0 121 -1 180 -10c38 -6 75 -15 108 -34c34 -19 62 -49 74 -85c5 -14 7 -29 7 -44c0 -31 -9 -62 -21 -90c-47 -112 -145 -202 -261 -238c-21 -6 -42 -11 -64 -11z
" />
    <glyph glyph-name="T" unicode="T" horiz-adv-x="401" 
d="M196 7c-8 0 -10 10 -10 25c0 37 18 105 47 214c15 55 24 111 39 167c28 107 63 213 100 316c7 20 15 40 23 60l-9 43c-5 21 -11 43 -19 63c-1 2 -2 3 -2 5c-2 3 -3 7 -5 11h-1c-6 0 -44 -6 -49 -7c-18 -2 -36 -4 -54 -5c-22 -2 -44 -3 -67 -3c-14 0 -29 0 -44 2
c-30 2 -61 9 -87 24c-26 16 -47 42 -51 72l-1 9c0 31 18 60 42 80c28 21 62 31 96 31l20 -1c41 -5 80 -24 112 -49c36 -29 69 -67 91 -107l7 -14l27 4s62 2 72 9s17 24 26 32c5 5 12 10 19 10c6 0 13 -3 17 -9c2 -3 2 -6 2 -9c0 -5 -2 -12 -5 -17l-3 -5h34
c46 -1 92 -5 137 -12s88 -18 132 -29c33 -9 66 -17 98 -27c10 -3 24 -7 31 -15l1 -1c3 -3 4 -7 4 -10c0 -5 -4 -8 -9 -8c-2 0 -5 0 -7 1c-38 12 -77 24 -117 34c-43 11 -87 20 -131 27h-5c-22 3 -44 6 -66 7c-23 1 -46 1 -69 1c-16 0 -33 0 -50 -1l-18 -35
c-76 -158 -136 -328 -189 -494c-11 -34 -21 -68 -30 -102l-51 -195c-6 -27 -12 -55 -16 -82c-1 -6 -7 -10 -12 -10zM194 921c21 0 43 2 65 5l10 1s41 6 63 10c5 0 10 1 14 2c-6 12 -13 23 -21 34l-17 22l-17 18c-11 12 -23 22 -36 33l-23 16c-7 5 -16 9 -24 13l-19 6
c-7 3 -14 4 -22 5c-6 1 -13 2 -20 2h-11l-10 -1c-6 -1 -11 -2 -17 -4c-6 -1 -12 -3 -17 -5l-13 -6l-11 -7c-7 -6 -14 -12 -20 -19c-4 -5 -10 -15 -10 -15l-2 -5c-2 -5 -3 -10 -4 -14v-16l3 -14l9 -15c4 -5 8 -9 13 -13c2 -2 10 -8 10 -8c4 -3 9 -6 15 -8c8 -4 17 -6 26 -9
c8 -2 16 -4 25 -5c15 -2 30 -3 45 -3h16zM411 828l13 30c8 20 18 41 29 63l-67 -7c11 -26 19 -56 25 -86z" />
    <glyph glyph-name="U" unicode="U" horiz-adv-x="579" 
d="M439 -7c-7 0 -12 9 -14 17c-3 15 -5 29 -5 44c0 14 2 29 3 43c17 190 66 374 116 558c-97 -165 -155 -351 -259 -511c-30 -46 -65 -91 -113 -119c-19 -10 -41 -18 -63 -18c-11 0 -23 2 -33 7c-36 16 -50 58 -56 97c-3 23 -5 46 -5 69c0 45 6 91 13 135
c25 144 72 283 130 417c8 17 16 35 27 50c7 8 17 16 27 16c3 0 7 -1 10 -4c5 -4 6 -9 6 -15s-2 -14 -5 -20c-77 -197 -164 -398 -164 -609v-21c0 -18 2 -37 8 -55c7 -17 21 -33 39 -38l13 -2c17 0 34 8 49 17c38 24 69 58 96 94c52 71 88 153 124 234
c52 115 107 228 165 339c4 8 10 19 20 19h1l4 -2c7 -4 9 -13 9 -22l-1 -13c-33 -232 -117 -456 -132 -691c-1 -5 -2 -12 -7 -15z" />
    <glyph glyph-name="V" unicode="V" horiz-adv-x="430" 
d="M129 2c-6 0 -12 1 -18 2c-23 6 -42 22 -55 42s-20 43 -26 66c-13 55 -18 111 -18 168c0 45 3 91 7 136c8 86 19 173 34 258c5 25 10 51 23 72c4 7 9 13 16 16l6 1c5 0 10 -2 13 -7l2 -8l-1 -6c-6 -43 -12 -86 -19 -129c-16 -104 -32 -207 -34 -312c0 -29 -2 -61 -2 -94
c0 -51 4 -103 25 -145c10 -19 27 -35 47 -38h6c16 0 32 6 45 15c31 20 56 49 77 79c82 118 124 259 166 396l90 298c2 5 5 11 10 11h1c3 -1 5 -5 5 -9l-1 -6c-12 -60 -30 -119 -47 -178c-34 -113 -70 -226 -114 -335c-35 -88 -76 -176 -142 -243c-27 -26 -61 -50 -96 -50z
" />
    <glyph glyph-name="W" unicode="W" horiz-adv-x="776" 
d="M93 6c-37 0 -74 39 -85 88c-6 28 -8 57 -8 87c0 124 33 257 68 368c22 71 48 143 92 203c7 9 17 19 27 19c8 0 14 -8 14 -17c0 -7 -2 -13 -5 -19c-83 -192 -147 -367 -156 -550c-1 -18 -3 -38 -3 -57c0 -48 18 -100 61 -100c13 0 26 5 37 12c47 27 80 72 108 118
c54 87 87 180 120 277c3 10 9 18 20 19c30 0 31 -57 39 -88c7 -26 15 -52 24 -77c6 -17 14 -35 28 -46c11 -8 24 -11 37 -11c16 0 32 4 47 11c133 58 191 234 191 381c0 36 -3 72 -10 108v5c0 5 4 9 7 9c6 0 13 -10 14 -14c12 -32 16 -74 16 -109c0 -163 -68 -331 -207 -397
c-19 -9 -41 -15 -62 -15c-16 0 -31 3 -45 13s-23 25 -31 40c-23 44 -38 91 -53 138c-44 -115 -86 -215 -159 -310c-30 -36 -78 -86 -126 -86z" />
    <glyph glyph-name="X" unicode="X" horiz-adv-x="982" 
d="M4 3c-3 0 -4 2 -4 5c0 11 17 36 21 41c77 116 183 234 278 325c7 6 11 9 11 18c0 5 -2 10 -4 15c-50 126 -75 261 -75 396c0 28 1 56 3 84c1 11 2 22 8 30c4 5 10 8 16 8c11 0 16 -11 16 -22c7 -162 15 -327 75 -478c92 88 188 174 285 257c20 17 40 34 63 44
c4 2 8 3 12 3c7 0 11 -4 11 -10c0 -7 -6 -16 -12 -21c-113 -107 -227 -213 -341 -320c43 -93 89 -194 172 -259c65 -51 147 -75 229 -75c71 0 145 19 206 49c2 2 5 3 8 4c-55 -54 -148 -74 -226 -74c-82 0 -164 23 -231 71c-86 63 -140 159 -191 252
c-171 -182 -118 -122 -289 -309c-8 -8 -19 -27 -31 -31c-4 -2 -7 -3 -10 -3z" />
    <glyph glyph-name="Y" unicode="Y" horiz-adv-x="751" 
d="M121 -339c-67 0 -115 45 -115 115c0 83 71 165 134 211c140 101 297 92 456 150c47 141 96 293 96 472c-1 43 2 50 -8 94c-4 16 -10 35 -20 48c-2 2 -5 5 -8 5c-15 -4 -22 -25 -32 -38c-55 -83 -98 -154 -171 -227c-37 -36 -86 -73 -145 -73c-37 0 -74 19 -93 52
c-11 20 -16 43 -16 66c4 86 28 161 80 234c10 15 26 37 43 37c10 0 16 -7 16 -17c0 -6 -2 -12 -4 -18c-41 -98 -78 -159 -86 -257c0 -15 3 -29 11 -40c14 -19 32 -23 56 -24c32 0 48 9 76 25c73 47 143 148 195 226c15 22 27 45 42 63c5 10 18 19 32 19c22 0 39 -21 50 -44
c19 -45 23 -84 23 -137c0 -132 -40 -310 -96 -450c42 18 56 25 99 50c6 4 19 14 29 16c5 -1 9 -4 9 -9c0 -6 -7 -10 -12 -14c-48 -30 -81 -46 -135 -69c-57 -139 -137 -255 -252 -347c-64 -53 -168 -119 -254 -119zM112 -316c180 17 383 217 473 426
c-140 -53 -324 -55 -446 -159c-51 -43 -88 -90 -104 -153c-3 -14 -3 -17 -3 -31c3 -48 25 -78 66 -82c5 -1 10 -1 14 -1z" />
    <glyph glyph-name="Z" unicode="Z" horiz-adv-x="878" 
d="M119 -569h-4c-72 0 -115 64 -115 130c0 11 1 21 3 32c28 125 133 223 228 301c153 125 300 210 477 271c6 33 13 70 13 107c0 47 -11 92 -45 124c-26 25 -58 36 -91 36c-15 0 -29 -2 -44 -6c-9 -2 -22 -8 -33 -8c-10 0 -19 6 -19 17c0 18 21 41 29 53
c44 72 89 145 120 224c8 19 14 39 14 60c-1 22 -8 39 -30 39c-10 0 -21 -4 -31 -9c-65 -33 -106 -79 -152 -125c0 0 -5 -4 -6 -7l1 2c-38 -42 -78 -98 -106 -149c-2 -3 -3 -5 -3 -5c-3 -6 -2 -10 -7 -10s-8 2 -8 6c11 32 35 67 60 100c54 75 119 150 196 202
c19 13 40 24 62 24c39 0 63 -37 63 -76c0 -13 -2 -25 -4 -37c-16 -82 -65 -154 -110 -223c-15 -24 -20 -29 -35 -52c17 4 38 5 44 5c51 0 99 -22 131 -63c30 -39 38 -88 38 -136l-5 -80c46 17 84 30 122 41h4c2 -1 2 -3 2 -6c0 -12 -7 -11 -12 -13c-77 -21 -61 -20 -118 -39
c-10 -51 -26 -102 -47 -147c-75 -164 -190 -302 -322 -424c-48 -44 -98 -86 -154 -120c-32 -20 -68 -37 -106 -39zM102 -543c29 0 59 14 84 30c136 86 266 217 369 352c69 97 122 194 148 305l-6 -3c-167 -66 -316 -152 -456 -268c-73 -60 -138 -129 -183 -212
c-18 -32 -34 -70 -34 -110c0 -50 31 -94 78 -94z" />
    <glyph glyph-name="bracketleft" unicode="[" horiz-adv-x="364" 
d="M131 307l1 2zM59 35h-1c-13 1 -46 7 -55 19c-2 2 -3 4 -3 6c0 10 17 36 84 189c135 327 149 539 196 539l59 -13c18 -5 25 -10 25 -14c0 -5 -9 -8 -22 -8c-7 0 -16 1 -25 3c-14 3 -23 7 -33 8c-16 -31 -84 -293 -152 -455l-9 -21c-41 -98 -102 -222 -102 -224
c15 -6 26 -7 37 -9c7 -1 10 -5 10 -10s-4 -10 -9 -10zM118 276l1 1z" />
    <glyph glyph-name="backslash" unicode="\" horiz-adv-x="315" 
d="M1 766h-1h1zM14 0l-4 1c-5 1 -7 3 -7 8c0 9 9 28 23 72c15 49 247 720 286 720c1 0 2 -1 3 -2v-1c0 -24 -256 -692 -256 -692c-35 -89 -36 -106 -45 -106z" />
    <glyph glyph-name="bracketright" unicode="]" horiz-adv-x="310" 
d="M156 265l1 2zM66 56l1 3zM180 321l1 3zM69 64l1 2zM173 306l1 2zM35 27c-7 0 -16 1 -27 3c-6 2 -8 6 -8 11c0 6 4 12 10 12l28 -2s247 590 247 659v4c-18 6 -61 1 -90 7c-10 2 -13 6 -13 10c0 3 2 5 4 6s4 1 8 1c11 0 31 -3 61 -5l27 1c15 0 28 -5 28 -33
c0 -45 -31 -149 -133 -387c-33 -79 -62 -143 -84 -194c-32 -76 -33 -93 -58 -93zM38 51l1 1zM93 121l1 1zM141 305l1 1zM287 713l-1 1z" />
    <glyph glyph-name="asciicircum" unicode="^" horiz-adv-x="212" 
d="M198 523c-21 0 -18 32 -32 257l-35 -40c-102 -119 -121 -126 -121 -126l-4 -2c-2 0 -4 2 -5 3l-1 3c0 10 39 21 151 171c12 16 20 24 27 24c21 0 20 -81 31 -226c2 -36 3 -42 3 -51c0 -7 -6 -13 -14 -13zM6 625h-1h1z" />
    <glyph glyph-name="underscore" unicode="_" horiz-adv-x="730" 
d="M65 -64c-43 0 -65 4 -65 14c0 7 6 7 15 10h1c1 0 2 -1 2 -3c0 -1 -1 -2 -2 -2h3c40 0 530 32 670 32c17 0 28 0 34 -1c5 -1 7 -5 7 -9c0 -5 -3 -10 -10 -11c-335 -9 -554 -30 -655 -30zM13 11h-1h1z" />
    <glyph glyph-name="grave" unicode="`" horiz-adv-x="50" 
d="M37 630c-8 0 -12 4 -28 40c-6 14 -9 24 -9 31c0 11 6 15 11 15c4 0 8 -2 10 -5c6 -9 29 -56 29 -69v-2c-1 -6 -6 -10 -13 -10z" />
    <glyph glyph-name="a" unicode="a" horiz-adv-x="674" 
d="M-33 -1c-31 0 -53 28 -53 60c0 30 16 62 31 88c33 58 98 121 169 121c38 -2 71 -16 83 -52c1 -4 3 -9 3 -14c10 10 20 19 30 30c13 13 20 38 38 38c20 -1 21 -25 23 -48c7 -84 63 -137 136 -137c43 0 90 15 129 33c33 15 52 25 82 51c1 1 3 1 4 1c4 0 6 -2 6 -5
c0 -11 -33 -27 -39 -31c-55 -38 -125 -70 -192 -70c-56 0 -105 20 -136 66c-23 34 -28 60 -30 98c-20 -16 -17 -16 -34 -34c-11 -8 -16 -21 -24 -25c-15 -11 -27 -26 -41 -39c-20 -20 -41 -39 -62 -58c-31 -29 -78 -73 -123 -73zM-28 20c15 0 32 11 44 18
c49 31 89 70 126 107l42 40c-10 25 -31 42 -58 43c-61 0 -115 -61 -145 -110c-8 -12 -34 -50 -34 -75c0 -14 10 -23 25 -23z" />
    <glyph glyph-name="b" unicode="b" horiz-adv-x="407" 
d="M34 -274h-4c-32 2 -45 25 -45 50c0 11 2 22 6 33c7 22 19 42 34 60s32 34 50 49c48 38 102 67 153 100c2 1 2 6 2 12c0 10 -1 23 -2 26c0 13 -3 27 -8 39c-8 21 -27 42 -51 43c-27 0 -53 -10 -76 -24c-34 -21 -64 -51 -89 -82l-1 -12c-1 -5 -1 -11 -3 -15
c-3 -5 -8 -8 -13 -8c-4 0 -8 2 -11 7c-2 4 -2 8 -2 13c0 41 7 84 13 125c7 49 16 98 27 147c29 129 75 255 131 375c29 61 60 121 102 173c18 24 40 46 66 60c16 8 35 13 53 13c21 0 42 -6 57 -21c13 -12 20 -28 24 -45l2 -25c0 -13 -2 -25 -4 -37c-9 -45 -29 -89 -49 -129
c-23 -45 -49 -87 -78 -128c-28 -41 -58 -81 -90 -120c-31 -39 -64 -77 -98 -114l-5 -6l-54 -55l-40 -36c-5 -23 -9 -47 -13 -70c-4 -20 -7 -41 -10 -61c0 -2 0 -4 -1 -6l3 4c29 35 68 71 110 91c16 7 34 12 52 12c15 0 29 -3 42 -10c30 -15 45 -48 51 -79l2 -17v-13l19 14
c41 31 82 67 115 107c3 3 6 7 10 8l3 1c5 0 10 -5 10 -9c0 -2 -1 -4 -3 -6c-7 -9 -15 -18 -23 -26c-14 -15 -29 -29 -45 -43s-32 -27 -48 -40c-13 -10 -26 -19 -39 -28v-3c-1 -11 -3 -23 -6 -34c-8 -34 -21 -68 -37 -99c-32 -63 -80 -115 -143 -148c-15 -7 -31 -13 -46 -13z
M36 218l7 6l49 51c34 36 67 73 99 111c17 20 33 40 49 60s31 40 46 60c14 20 28 40 41 60c14 21 26 43 39 64l3 6c11 21 22 42 31 64c8 20 18 43 24 66c4 15 6 30 6 44v9c-2 30 -20 60 -48 67c-5 1 -10 2 -15 2c-20 0 -40 -10 -55 -23c-56 -44 -88 -115 -117 -178
c-11 -22 -21 -45 -31 -69c-19 -46 -38 -93 -55 -141c-16 -48 -31 -96 -45 -145c-6 -23 -12 -45 -17 -68zM27 -248c56 4 121 70 154 128c18 35 31 67 41 105l2 9c-66 -42 -190 -98 -217 -199c-2 -6 -3 -13 -3 -19c1 -17 10 -24 23 -24z" />
    <glyph glyph-name="c" unicode="c" horiz-adv-x="398" 
d="M20 -80c-23 0 -45 6 -64 20c-18 14 -30 34 -35 56c-2 9 -3 17 -3 26c0 35 14 70 28 102c18 39 42 75 74 104c20 19 46 36 74 38h4c17 0 34 -5 45 -17c9 -10 13 -22 13 -34c0 -14 -5 -29 -12 -41c-2 -3 -4 -8 -7 -9l-2 -1c-3 0 -5 2 -6 4s-1 4 -1 7c0 8 3 19 4 25v4
c0 10 -3 19 -14 23l-8 1c-5 0 -10 -1 -14 -2c-50 -20 -85 -78 -109 -123c-13 -26 -33 -66 -33 -100c0 -21 7 -40 27 -52c12 -8 28 -11 43 -11h7c49 2 95 28 134 55c43 29 82 64 121 98l90 80l4 2c3 0 5 -1 6 -3c1 -1 2 -3 2 -5s-1 -4 -3 -6c-69 -65 -139 -133 -219 -186
c-39 -26 -95 -55 -146 -55z" />
    <glyph glyph-name="d" unicode="d" horiz-adv-x="415" 
d="M358 -354c-18 0 -49 61 -58 75c-71 112 -103 231 -103 365c0 45 0 62 5 107l-2 -4c-32 -45 -14 -21 -48 -66c-29 -36 -75 -87 -125 -87c-15 0 -30 5 -41 15c-15 14 -20 35 -20 57c0 69 40 140 84 184c27 27 57 48 96 48c30 0 57 -13 70 -37c2 -4 4 -7 5 -12
c51 170 135 354 239 494c32 41 67 81 112 106c17 9 44 20 68 20c25 0 44 -15 47 -38c1 -7 1 -14 1 -21c-5 -71 -41 -138 -75 -199c-81 -142 -205 -275 -357 -382c-19 -84 -24 -147 -24 -224c4 -116 32 -213 92 -321c15 -33 16 -31 41 -65c1 -2 1 -4 1 -6c0 -4 -2 -9 -8 -9z
M30 59c36 4 59 25 84 52c37 41 73 88 97 141c1 1 2 2 2 4c0 12 -1 9 -6 17c-16 21 -29 29 -48 29c-28 0 -57 -21 -75 -41c-36 -41 -61 -92 -79 -144c-2 -7 -4 -15 -4 -22c0 -19 8 -36 29 -36zM262 295c42 31 56 41 94 75c70 58 146 136 200 219c13 20 25 41 37 62
c38 68 73 135 75 213c0 18 -9 29 -28 29c-29 -1 -56 -17 -77 -32c-43 -34 -74 -79 -102 -126c-83 -135 -157 -286 -199 -440z" />
    <glyph glyph-name="e" unicode="e" horiz-adv-x="410" 
d="M73 -59c-22 0 -44 5 -63 17c-24 16 -40 42 -46 71c-3 11 -4 22 -4 34c0 17 3 34 7 51c14 54 44 103 86 139c21 18 47 33 75 33h8c13 -2 27 -7 36 -18c7 -8 9 -16 9 -24c0 -24 -21 -47 -38 -62c-19 -16 -40 -30 -62 -43c-11 -7 -23 -14 -36 -20c-6 -3 -12 -6 -18 -8
c-4 -2 -7 -3 -10 -3l-4 -1l-6 2c-1 1 -2 3 -2 5c-4 -10 -9 -28 -11 -40c-2 -8 -3 -16 -3 -24l1 -13c4 -25 15 -49 36 -63c15 -11 34 -15 53 -15l17 1c31 5 60 18 87 34c15 9 30 18 44 28c32 22 62 46 90 71c15 13 29 26 42 39l20 20c5 6 11 14 17 18c2 1 4 2 6 2l4 -1
c1 -1 3 -3 3 -5v-2c0 -2 -1 -4 -3 -6l-48 -48c-17 -17 -35 -33 -54 -49c-55 -48 -123 -100 -196 -116c-12 -3 -25 -4 -37 -4zM7 117c1 2 4 3 6 4c32 11 63 29 90 49c22 15 49 36 54 64v3c0 3 -1 7 -3 10c-3 4 -9 6 -15 6l-7 -1c-25 -4 -47 -21 -65 -39
c-18 -19 -34 -41 -46 -65c-5 -10 -10 -20 -14 -31z" />
    <glyph glyph-name="f" unicode="f" horiz-adv-x="382" 
d="M-201 -693h-2c-13 1 -21 15 -26 28c-13 41 -12 86 -14 129c-1 24 -1 48 -1 71c0 131 14 260 45 387c51 205 138 399 239 584c0 0 55 99 85 141c5 7 10 10 13 10c6 0 9 -6 9 -15v-4c-1 -14 -13 -26 -19 -38c-15 -34 -34 -66 -52 -99c-26 -51 -52 -102 -77 -154
c-12 -26 -25 -52 -36 -78l-36 -81c-23 -53 -42 -108 -60 -164c-8 -23 -14 -46 -21 -69l-18 -71c-1 -3 -3 -11 -3 -11s-23 -112 -31 -168c-7 -57 -11 -116 -11 -174c0 -61 4 -121 13 -180c0 -6 1 -12 3 -18l1 -4l4 3c4 5 7 10 10 15c6 11 11 23 16 36c5 12 9 25 13 38
c8 27 16 54 22 81v-3l2 10c7 28 12 56 16 84c5 29 9 57 12 86l7 85l3 82v74s0 1 -1 1v1c-1 42 -9 82 -12 124v5c0 8 2 16 9 22c6 6 14 9 22 12c55 17 114 24 170 40c58 15 114 35 169 59c7 3 12 4 16 4h3c2 0 3 -1 3 -2c0 -3 -7 -10 -10 -12c-11 -6 -24 -12 -36 -17
c-53 -23 -108 -39 -162 -54l-83 -23l-42 -12c-4 -1 -35 -8 -35 -12c-1 -1 -1 -2 -1 -3l5 -21c3 -11 5 -22 6 -34c4 -25 6 -50 7 -75l1 -37c0 -46 -4 -91 -7 -137c-5 -57 -12 -113 -23 -169c-3 -18 -7 -36 -11 -53c-7 -29 -15 -57 -23 -86c-8 -27 -17 -54 -27 -80
c-7 -18 -21 -54 -44 -54z" />
    <glyph glyph-name="g" unicode="g" horiz-adv-x="385" 
d="M-785 -945c-30 0 -59 9 -81 31c-25 26 -36 63 -36 99l1 21c5 45 22 91 44 132c14 27 31 53 50 77c18 25 39 48 62 70c44 43 94 81 146 115c51 33 105 61 160 87c28 13 57 26 86 37c26 10 52 19 79 26c18 56 36 112 52 168l7 26l29 145l19 118l-6 -6l-14 -15l-28 -32
c-20 -23 -39 -45 -60 -67c-34 -35 -72 -71 -121 -82c-7 -2 -14 -3 -21 -3l-15 2c-26 8 -40 37 -42 64v8c0 66 44 131 93 171c19 16 40 29 64 35c8 2 17 3 25 3c28 0 55 -11 71 -36c5 -7 9 -16 11 -25l1 -14l-1 -17l14 16c3 5 6 10 10 15c6 10 14 23 27 26h2
c9 0 19 -7 24 -16s5 -20 5 -31c0 -98 -24 -196 -49 -290l-47 -150c19 3 81 14 99 14l19 -1c5 0 10 -4 10 -10c0 -4 -3 -8 -7 -9c-3 -1 -6 -1 -10 -1h-10c-17 0 -34 -2 -51 -5c-10 -2 -19 -3 -29 -6c-3 0 -27 -4 -28 -6c-1 -3 -2 -7 -2 -7c-7 -22 -15 -44 -23 -65
c-18 -49 -37 -96 -59 -143c-43 -93 -95 -183 -161 -263c-65 -78 -149 -158 -246 -194c-20 -7 -42 -12 -63 -12zM-411 33c6 0 11 2 17 3c48 11 84 53 118 87l47 49v1c0 3 -3 13 -4 15c-1 5 -3 10 -5 15c-5 10 -11 19 -20 25c-8 6 -19 9 -29 9l-13 -2c-6 -1 -13 -5 -19 -8
c-28 -16 -51 -39 -71 -64c-11 -14 -20 -29 -28 -44c-9 -15 -19 -35 -19 -54c0 -6 1 -12 3 -18c2 -4 5 -8 8 -10c5 -4 10 -4 15 -4zM-792 -911c9 0 19 1 28 4c46 12 93 44 130 73c23 19 46 38 66 59c73 73 134 158 182 248c16 31 31 63 45 95c21 51 40 103 57 155l-41 -15
c-17 -6 -32 -12 -48 -19c0 0 -101 -46 -148 -72c-156 -88 -330 -217 -355 -408c-1 -8 -1 -15 -1 -23c0 -29 6 -57 27 -76c15 -14 36 -21 58 -21z" />
    <glyph glyph-name="h" unicode="h" horiz-adv-x="621" 
d="M-19 -55c-10 0 -15 11 -16 20l-1 28c0 94 29 197 52 285c28 102 64 203 106 301c50 117 111 234 205 321c38 35 89 70 144 70c49 0 88 -29 88 -77c0 -17 -4 -34 -10 -49c-13 -33 -31 -66 -48 -97c-87 -174 -233 -333 -376 -466c-30 -29 -44 -40 -80 -70
c-23 -93 -23 -114 -46 -219c57 73 105 158 190 217c20 14 43 25 67 26c63 0 99 -56 121 -121c5 -18 10 -36 21 -51c11 -16 26 -22 42 -22c30 0 61 22 86 41c33 27 62 57 89 89c1 2 4 3 6 3c6 0 10 -5 10 -9c0 -2 -1 -5 -3 -7c-17 -20 -35 -40 -54 -58
c-41 -39 -86 -80 -140 -81c-26 0 -50 12 -66 31c-12 15 -19 33 -27 51c-9 20 -20 39 -33 57c-17 23 -36 41 -63 41c-47 0 -87 -45 -123 -82c-19 -21 -37 -43 -54 -66l-4 -5c-21 -27 -41 -56 -60 -85c-4 -6 -10 -13 -17 -15zM52 241c70 63 131 117 202 195
c88 96 110 133 210 280c15 27 31 54 44 82c15 35 29 54 32 91c0 19 -7 38 -22 48c-10 7 -23 10 -35 10c-82 -5 -133 -61 -184 -128c-103 -134 -169 -318 -221 -487z" />
    <glyph glyph-name="i" unicode="i" horiz-adv-x="319" 
d="M50 -40c-26 0 -52 9 -69 30c-14 18 -23 43 -23 67l1 10c6 64 22 115 47 180c3 8 11 21 21 21c2 0 3 0 5 -1c7 -2 10 -9 11 -16c0 -6 -2 -13 -3 -19l-29 -104c-7 -25 -14 -50 -15 -76v-7c0 -16 3 -33 14 -45c9 -9 22 -14 35 -15h7c11 0 22 2 32 5c86 25 159 97 214 165
l4 6c2 2 5 3 8 3s6 -1 8 -3s3 -5 3 -8s-2 -5 -3 -7c-34 -42 -71 -80 -112 -113c-22 -18 -46 -34 -71 -47c-13 -7 -27 -13 -42 -18c-14 -5 -29 -8 -43 -8zM65 405h-4l-7 3c-5 4 -8 11 -8 18v3c2 10 12 17 21 17c5 0 10 -2 14 -6s6 -9 6 -15c0 -7 -4 -14 -11 -18
c-3 -1 -7 -2 -11 -2z" />
    <glyph glyph-name="j" unicode="j" horiz-adv-x="105" 
d="M-1385 -935c-33 0 -66 11 -88 34c-19 21 -28 49 -29 77v6c0 31 8 63 20 91c6 13 13 26 21 38c16 26 34 51 52 75c18 22 37 44 57 64c34 35 70 67 108 96c24 19 49 37 74 54c24 17 49 32 75 48c25 14 50 28 76 41c27 14 54 26 82 38c26 11 54 21 81 29c4 2 8 3 12 4
c15 47 29 95 42 143c14 57 27 114 39 171c6 28 12 57 19 85c6 25 12 69 31 88c5 5 9 6 13 6c8 0 13 -9 13 -19v-5c-8 -51 -20 -104 -31 -154c-12 -58 -25 -115 -41 -172l-41 -135c18 4 84 21 103 23c14 1 29 2 43 2h22c3 -1 6 -2 7 -4c2 -1 3 -4 3 -7c0 -4 -3 -9 -9 -9h-1
c-11 1 -22 1 -33 1l-35 -3c-36 -5 -71 -14 -106 -24c-1 -3 -3 -6 -4 -10c-19 -56 -41 -111 -63 -166c-12 -27 -24 -54 -37 -81c-13 -26 -27 -52 -42 -77c-31 -53 -66 -103 -105 -150c-39 -45 -83 -86 -131 -121c-53 -38 -118 -71 -184 -76zM-1395 -904c34 0 71 13 98 23
c184 80 310 276 384 453l7 17l29 74c3 10 23 64 25 70l-9 -3c-25 -9 -50 -18 -75 -28c-13 -5 -26 -11 -39 -17l-39 -20c-157 -79 -311 -189 -412 -335c-28 -42 -53 -89 -53 -138l2 -22c4 -26 17 -52 39 -64c13 -7 28 -10 43 -10zM-673 345c-13 0 -25 12 -25 25
c0 14 12 26 25 26c14 0 26 -12 26 -26c0 -13 -12 -25 -26 -25z" />
    <glyph glyph-name="k" unicode="k" horiz-adv-x="488" 
d="M-48 -41c-8 0 -10 10 -10 20c0 7 1 14 2 18c7 59 17 117 30 175c51 226 143 440 265 637c16 27 32 53 49 79c15 21 34 53 58 64l6 1c5 0 7 -4 7 -10c0 -8 -4 -18 -6 -22c-5 -12 -11 -23 -18 -35c-17 -30 -36 -58 -54 -88c-29 -50 -58 -100 -85 -151
c-27 -50 -51 -102 -74 -154l-15 -34c-22 -52 -42 -105 -60 -159c-18 -53 -34 -107 -48 -161c-8 -27 -14 -53 -20 -80c-3 -13 -6 -26 -8 -40c-1 -1 -1 -2 -1 -4l56 111c13 25 26 49 40 73c15 25 30 49 47 73l24 32c17 22 35 42 54 62s38 39 60 56c20 15 41 29 64 41
c2 1 4 2 7 2h1c6 0 11 -5 11 -11l-2 -5c-2 -3 -5 -4 -8 -6l-13 -6c-45 -23 -84 -57 -118 -95s-64 -80 -91 -123c-4 -6 -7 -12 -11 -17c1 0 12 -22 13 -24c5 -10 12 -20 19 -29c13 -18 31 -33 50 -44c23 -13 49 -22 76 -23h9c25 0 50 7 73 17c27 12 54 27 77 46
c16 12 31 25 44 40c2 3 5 5 8 7h2c3 0 6 -1 7 -3c1 -1 2 -3 2 -5c0 -10 -14 -20 -20 -26l-19 -18c-43 -38 -98 -72 -156 -80l-26 -2c-41 0 -82 14 -115 39c-21 16 -46 41 -55 67l-3 12v1l-18 -30c-32 -58 -58 -120 -92 -177c-2 -4 -5 -8 -10 -10z" />
    <glyph glyph-name="l" unicode="l" horiz-adv-x="267" 
d="M80 37c-62 0 -80 72 -80 135c0 25 2 51 6 76c25 185 94 364 201 517c43 61 95 121 165 149c13 5 27 9 41 9c35 0 51 -24 51 -53c-6 -63 -19 -86 -52 -147c-44 -81 -119 -169 -190 -244c-46 -48 -102 -110 -153 -145c-4 -3 -8 -6 -12 -8c-4 -3 -5 -25 -7 -30
c-11 -57 -6 -30 -15 -88c-3 -19 -5 -39 -5 -58c0 -28 3 -66 26 -84c8 -5 17 -7 27 -7c8 0 17 1 25 3c65 18 120 63 172 104l4 2c5 0 6 -2 8 -7c0 -3 -1 -5 -3 -6c-33 -29 -72 -58 -110 -81c-30 -16 -61 -37 -99 -37zM62 347c39 32 72 65 109 103c109 115 190 198 250 326
c14 28 26 61 28 93c0 11 -1 24 -10 31c-5 3 -12 4 -18 4c-33 0 -63 -17 -88 -38c-47 -39 -82 -90 -113 -142c-72 -122 -125 -247 -158 -377z" />
    <glyph glyph-name="m" unicode="m" horiz-adv-x="720" 
d="M-83 -23c-7 0 -12 3 -16 11c-2 5 -3 10 -3 15l2 15c9 56 27 113 47 167c17 47 36 102 73 137c3 4 7 7 12 8l5 1c7 0 9 -5 9 -11c0 -10 -6 -24 -8 -30l-40 -90v-2c-1 0 -1 -1 -1 -1c-15 -38 -31 -75 -45 -113l-14 -38c-2 -9 -6 -17 -8 -26l-4 -12l-2 -10l7 5
c21 17 40 38 58 58c65 75 127 152 201 218c12 10 25 21 41 21h5c19 -3 31 -24 35 -44c3 -12 4 -25 4 -38c0 -34 -8 -69 -12 -104v-3c0 -2 0 -3 1 -4c2 -2 5 -3 8 -3h4c18 4 35 13 50 23c55 35 102 80 153 119c5 4 10 7 16 8h3c11 0 21 -12 25 -24c7 -16 9 -34 9 -51
c0 -18 -2 -35 -5 -53l-1 -10c0 -8 2 -15 8 -18c4 -2 8 -2 12 -2c29 3 56 20 79 38c10 8 19 15 28 24l12 12l12 11c1 1 3 2 5 2l4 -2c2 -1 2 -3 2 -5s0 -3 -2 -5l-10 -11l-12 -12c-9 -9 -18 -17 -28 -25c-23 -18 -51 -37 -81 -43c-4 -1 -9 -1 -13 -1c-23 0 -40 14 -43 39v50
c0 17 -1 33 -3 49c-1 7 0 15 -8 15h-1c-5 0 -11 -6 -15 -9l-25 -20l-38 -33c-37 -29 -73 -59 -115 -78c-9 -5 -19 -8 -28 -8c-5 0 -10 1 -14 3c-10 4 -15 15 -17 25c-1 5 -2 10 -2 16l1 16c2 19 2 38 2 57c0 18 0 37 -2 56c0 7 -2 15 -9 17h-2c-3 0 -5 -1 -8 -2
c-16 -7 -31 -18 -45 -31c-78 -70 -139 -157 -210 -235c-9 -9 -28 -29 -43 -29z" />
    <glyph glyph-name="n" unicode="n" horiz-adv-x="502" 
d="M487 166c-6 -8 -14 -15 -22 -22c-10 -9 -21 -17 -32 -25c-11 -9 -22 -17 -33 -24c-12 -8 -24 -16 -35 -24c-26 -15 -53 -28 -83 -32h-6c-10 0 -21 2 -29 6c-9 5 -15 14 -18 23c-1 4 -2 9 -2 13c-2 14 -2 27 -3 40v29c0 20 -1 40 -6 58c-1 4 -3 7 -5 10c-3 3 -7 4 -12 4
c-4 0 -8 -1 -11 -2c-22 -10 -42 -29 -59 -46c-10 -11 -20 -22 -29 -33c-19 -21 -38 -44 -57 -65c-13 -14 -26 -27 -41 -38c-10 -7 -22 -12 -34 -12c-10 0 -20 4 -28 14c-8 9 -11 22 -12 35v3c0 57 28 121 58 168c11 16 22 31 38 41c5 3 11 5 16 5c4 0 8 -1 11 -4s4 -6 4 -10
c0 -6 -2 -11 -5 -16c-8 -12 -16 -23 -24 -35c-8 -13 -17 -26 -24 -39c-11 -21 -21 -41 -30 -63c-7 -18 -13 -36 -16 -55c0 -3 -1 -7 -1 -10c0 -4 1 -7 2 -10c3 -6 9 -8 15 -8c4 0 8 0 11 2c7 3 14 8 20 12v1c22 18 41 40 60 62c18 22 37 44 56 66c10 10 20 20 30 29
c16 14 38 33 60 33c7 0 15 -3 22 -8c9 -6 14 -15 18 -24c13 -31 13 -66 13 -99c0 -8 0 -16 -1 -24v-10c0 -11 2 -18 16 -19h4c57 0 112 46 154 78c8 6 15 12 22 19c3 2 6 5 9 8l7 7c2 2 3 2 5 2c1 0 3 0 4 -1c3 -1 4 -3 4 -6c0 -1 0 -3 -1 -4z" />
    <glyph glyph-name="o" unicode="o" horiz-adv-x="305" 
d="M-18 32c-32 0 -45 31 -46 67c0 36 13 73 34 103c4 5 7 10 12 15c-17 28 -26 47 -26 79c0 20 6 40 17 58c15 23 42 33 69 33c14 0 28 -3 40 -7c44 -15 57 -51 57 -90c0 -27 -6 -59 -15 -86c-11 -24 -10 -29 -22 -53c30 -6 34 -2 63 -6c16 0 49 2 49 2c22 4 47 10 69 20
c7 0 9 6 16 7c4 -2 3 1 4 -4c-3 -6 -7 -7 -14 -9c-25 -10 -25 -10 -55 -19c-13 -3 -26 -7 -40 -9s-28 -2 -42 -3h-28c-10 1 -20 3 -31 3c-15 -26 -31 -52 -57 -75c-12 -14 -34 -26 -54 -26zM-7 47c30 0 63 50 88 88c-23 11 -43 27 -43 27c-9 6 -17 14 -25 21
c-19 -25 -59 -63 -59 -93c0 -18 11 -32 11 -32c2 -3 14 -11 28 -11zM91 154c2 0 6 8 10 19c12 30 28 72 28 110c0 22 -5 43 -21 60c-21 21 -37 23 -66 26c-41 0 -62 -35 -62 -72c0 -23 7 -45 19 -64c10 8 22 15 32 15c8 0 16 -6 16 -13c0 -13 -13 -21 -20 -35l30 -27h1
c14 -9 12 -11 27 -17z" />
    <glyph glyph-name="p" unicode="p" horiz-adv-x="336" 
d="M-649 -764c-7 0 -9 9 -9 17l1 8c10 47 23 92 35 138c15 52 31 104 47 156c17 51 34 103 52 154s37 102 57 152c25 66 51 132 79 197c16 38 33 76 50 114l27 59l16 30c5 8 10 18 17 24c3 3 7 5 11 5c2 0 4 0 6 -2s2 -6 2 -9c-4 -25 -16 -51 -26 -74
c-10 -24 -21 -48 -31 -73l-25 -59c0 -1 0 -2 -1 -3l-66 -161l-61 -153c-35 -91 -67 -183 -97 -275l5 12c45 114 91 228 145 338c23 49 49 97 77 144c26 46 55 91 86 134c34 47 72 90 118 126c13 11 35 25 54 25l8 -1c17 -3 30 -21 35 -37c3 -12 5 -24 5 -36
c0 -16 -3 -32 -6 -47c-22 -97 -86 -183 -170 -235c-19 -12 -40 -22 -62 -22c-13 1 -26 5 -36 14c-6 5 -15 18 -15 27v3c1 3 4 5 6 5s4 -1 5 -2c6 -7 9 -15 16 -20s16 -7 24 -7c16 1 30 9 42 18c32 21 59 48 82 79c18 24 34 51 47 77c12 24 22 50 29 77c2 10 8 33 8 53
c0 18 -5 34 -24 34h-2c-7 -1 -14 -5 -20 -8c-38 -23 -71 -53 -99 -87c-40 -49 -74 -103 -107 -157c-27 -46 -53 -93 -77 -141c-51 -101 -96 -206 -138 -311l-30 -77c-27 -70 -48 -144 -78 -213c-1 -3 -4 -7 -7 -9c-2 -1 -3 -1 -5 -1z" />
    <glyph glyph-name="q" unicode="q" horiz-adv-x="352" 
d="M-167 -735c-7 0 -14 4 -18 9c-5 6 -6 14 -8 21c-3 17 -5 34 -5 52c0 25 3 50 6 74c7 56 20 110 33 164c21 74 49 146 80 216c32 71 67 140 104 207s77 131 118 195l18 28l-34 -24l-45 -29c-41 -27 -84 -58 -133 -67l-16 -1c-8 0 -16 1 -22 5c-7 5 -13 13 -15 21l-2 12
c0 7 2 13 4 19c23 68 80 174 162 174c13 0 26 -2 40 -8c27 -10 43 -38 43 -66c0 -7 -1 -13 -3 -20c-2 -5 -5 -13 -11 -16l-4 -1c-3 0 -5 2 -6 5c-2 3 -3 7 -3 11c-3 17 -18 32 -36 36l-11 1c-10 0 -19 -2 -28 -6c-27 -11 -49 -32 -68 -54c-8 -10 -50 -62 -50 -84
c0 -4 2 -7 5 -9c2 -1 5 -2 9 -2c7 0 14 3 20 4c17 5 33 12 49 20c32 16 62 36 92 55c28 18 56 37 83 57l3 3h1c4 7 9 14 15 19l4 2l4 1c5 0 10 -3 13 -7c2 -3 3 -7 3 -10c0 -5 -1 -9 -3 -13c-1 -4 -2 -8 -4 -12l-11 -25l-27 -50c-18 -33 -37 -65 -56 -97
c-39 -66 -77 -133 -111 -201c-35 -69 -68 -138 -97 -209c-16 -38 -42 -115 -42 -115l-3 -9c-9 -30 -18 -60 -24 -91c-3 -15 -5 -30 -7 -45l-4 -61l1 -20c0 -8 1 -17 2 -25c5 5 9 11 13 17l2 3c9 14 17 28 25 43c9 16 17 33 25 50c16 33 30 67 43 101c7 18 13 35 19 53v1
c10 32 19 64 26 96l4 23c2 8 3 17 4 25c1 12 2 24 2 36l1 3v31l-1 23c0 5 2 9 7 9h2c4 0 7 -3 8 -7c2 -13 2 -26 2 -39c0 -25 -2 -50 -6 -75c-5 -33 -14 -65 -23 -97c-10 -35 -21 -70 -34 -105c-12 -34 -27 -68 -41 -102l-22 -49c-8 -17 -18 -33 -28 -49
c-3 -5 -7 -10 -12 -14c-4 -4 -8 -8 -14 -10c-2 -1 -5 -1 -7 -1z" />
    <glyph glyph-name="r" unicode="r" horiz-adv-x="273" 
d="M-133 -12c-3 0 -6 1 -8 5c-2 3 -3 7 -3 10v4c0 22 6 41 12 62c12 47 26 93 44 138c8 22 17 43 28 64c10 20 23 51 45 59l7 1c4 0 8 -1 10 -4s3 -6 3 -10c0 -10 -6 -21 -10 -28c-6 -15 -12 -30 -19 -44l-38 -90l-37 -95c-2 -7 -4 -19 -8 -25l27 33c17 21 34 42 53 61
c13 14 25 27 39 39c21 18 43 36 66 52c21 14 42 29 66 37c5 2 9 3 14 3c0 0 7 0 10 -2c5 -3 7 -6 7 -10c0 -7 -7 -15 -16 -16c-24 -3 -43 -10 -64 -22c-44 -27 -83 -60 -119 -97c-35 -37 -63 -79 -95 -118c-4 -4 -9 -7 -14 -7z" />
    <glyph glyph-name="s" unicode="s" horiz-adv-x="375" 
d="M-8 -314c-10 0 -20 3 -27 11c-5 6 -7 13 -7 21l1 10c6 32 33 58 55 81c18 18 36 35 56 52l4 4v3l-11 32c-21 49 -55 92 -73 144c-10 29 -17 60 -17 91c0 18 2 35 7 52c13 47 48 89 95 102c9 3 19 5 29 5l17 -2c24 -6 45 -23 55 -45c6 -13 8 -26 8 -41
c0 -30 -11 -62 -24 -87c-5 -10 -11 -20 -17 -30c-11 -16 -23 -32 -37 -45c-2 -2 -5 -3 -8 -3h-2c-2 1 -2 2 -2 4c0 3 2 6 4 8c33 42 64 88 66 144v9c0 20 -5 40 -21 52c-8 6 -18 9 -28 9c-16 0 -33 -7 -47 -16c-24 -17 -43 -42 -52 -70c-4 -14 -6 -29 -6 -43
c0 -29 7 -59 17 -86c6 -15 71 -140 71 -164c0 -2 0 -3 -1 -4c31 25 62 49 92 75c39 32 73 69 105 107c7 7 13 15 19 23c12 15 22 30 32 46c5 8 10 16 14 24c3 6 6 13 11 19c2 2 4 3 6 3h2c3 -1 6 -4 6 -7v-2l-12 -26l-17 -29c-12 -20 -26 -39 -40 -58
c-15 -20 -31 -40 -49 -58s-37 -35 -57 -52c-34 -29 -71 -57 -107 -85c3 -15 5 -30 5 -45c0 -22 -4 -42 -15 -63c-16 -30 -43 -54 -76 -66c-7 -3 -16 -4 -24 -4zM-9 -298l3 1c4 1 8 2 12 4c9 4 17 9 25 15l1 1c10 7 19 16 26 25c6 8 12 17 16 26c3 8 5 15 6 23c1 6 1 12 1 18
l-1 24c-1 2 -1 4 -1 6c-14 -11 -26 -22 -39 -33c-16 -15 -30 -30 -44 -46v-1l-10 -13l-7 -13c-2 -5 -3 -10 -4 -16l-1 -4l1 -4c0 -1 0 -3 1 -4l1 -3c1 -1 2 -2 3 -2c1 -1 2 -2 3 -2c1 -1 3 -1 4 -1z" />
    <glyph glyph-name="t" unicode="t" horiz-adv-x="208" 
d="M-241 -66c-8 0 -11 12 -11 32c0 98 77 393 86 427c112 400 221 480 221 496l-1 2c-69 41 -134 80 -225 80c-95 -1 -191 -40 -235 -75c-37 -32 -27 -48 -46 -50c-8 0 -16 8 -16 19c0 51 174 125 297 126c102 0 158 -33 241 -84c61 82 277 320 378 320c27 0 45 -18 45 -45
c0 -88 -190 -258 -310 -337c148 -73 271 -96 368 -96c149 0 236 53 258 53c5 0 6 -1 6 -5c0 -3 -2 -5 -4 -6c-100 -39 -192 -57 -281 -57c-125 0 -242 36 -367 97c-180 -115 -138 -57 -160 -103c-205 -420 -211 -793 -244 -794zM20 762c29 14 85 46 131 75l-62 34
c-24 -34 -44 -65 -69 -109zM171 851c116 76 267 214 303 306c3 8 4 15 4 21c0 18 -10 29 -27 29l-6 -1c-81 -17 -261 -205 -344 -317c20 -12 37 -21 70 -38z" />
    <glyph glyph-name="u" unicode="u" horiz-adv-x="416" 
d="M-3 38h-3c-19 0 -35 8 -43 26c-3 8 -5 18 -5 27l1 12c5 48 22 92 47 135c7 11 28 49 48 49c5 0 9 -2 13 -7c2 -3 3 -6 3 -9l-1 -6c-1 -5 -4 -10 -7 -15c-16 -26 -33 -53 -47 -81c-13 -27 -28 -57 -29 -87v-4c0 -5 1 -9 3 -13c5 -7 13 -9 21 -9c11 0 24 5 32 8l19 9l19 11
c12 8 24 16 35 25l28 23c9 7 18 15 26 23l22 23c6 5 13 10 16 16s5 12 12 14l4 1c12 0 16 -14 16 -25v-3c0 -7 -2 -15 -2 -22c0 -3 1 -6 2 -9c5 -8 15 -13 24 -15c8 -2 15 -3 23 -3c13 0 26 2 38 6c16 5 31 11 45 19c13 8 25 19 38 27l5 1c4 0 8 -3 8 -6c0 -2 -1 -3 -3 -5
c-29 -25 -65 -47 -103 -55c-12 -2 -23 -4 -34 -4h-7c-31 2 -69 18 -69 53v1l-6 -6c-8 -8 -17 -15 -25 -22c-18 -17 -37 -32 -56 -47l-1 -1c-22 -17 -45 -34 -70 -45c-12 -5 -24 -9 -37 -10z" />
    <glyph glyph-name="v" unicode="v" horiz-adv-x="301" 
d="M-77 -8c-20 0 -33 16 -33 37c0 7 1 15 3 23c14 63 41 123 73 180c6 10 18 31 33 31c8 0 16 -8 16 -18c-5 -40 -29 -73 -45 -105c-17 -34 -35 -68 -49 -104c-2 -4 -3 -8 -3 -12c1 -10 5 -13 15 -13c9 0 21 5 26 7c19 9 36 20 53 33l1 1c82 64 187 196 187 196l34 45l3 2
c4 -1 6 -2 6 -5c-3 -8 -7 -11 -12 -18c-34 -51 -45 -59 -84 -105c-56 -62 -120 -139 -196 -169c-9 -3 -19 -6 -28 -6z" />
    <glyph glyph-name="w" unicode="w" horiz-adv-x="723" 
d="M-5 5c-15 0 -28 5 -37 20c-8 13 -10 29 -10 44c1 54 11 97 29 147c14 38 32 84 62 113c6 7 15 12 24 12c14 -1 15 -8 17 -18l-1 -6c-7 -20 -13 -27 -25 -49c-33 -64 -62 -141 -72 -219c0 -16 8 -21 27 -23c7 0 14 3 21 5c82 29 148 100 200 167c9 4 6 16 12 25
c4 4 10 8 15 8c12 -1 17 -12 17 -24c-1 -28 -12 -52 -12 -76c0 -11 2 -22 9 -31c9 -12 27 -19 45 -19c8 0 16 1 24 3c47 10 88 37 121 72c0 0 -7 26 -7 32c2 18 7 37 26 37c33 -8 8 -45 29 -71c16 -20 47 -29 73 -29c48 0 87 25 118 62c2 2 5 6 8 7c3 0 6 0 7 -2
c1 0 2 -1 2 -3s-1 -4 -3 -6c-40 -48 -88 -81 -149 -81c-37 0 -74 14 -99 44c0 -5 -47 -42 -52 -46c-32 -21 -67 -42 -106 -42h-2c-44 0 -78 40 -78 90v6c2 6 5 17 5 22c0 2 0 2 -1 2c-2 0 -6 -4 -14 -15c-57 -63 -97 -108 -161 -138c-17 -9 -41 -20 -62 -20z" />
    <glyph glyph-name="x" unicode="x" horiz-adv-x="425" 
d="M194 22c-22 0 -42 14 -52 34c-11 22 -10 33 -11 59c0 7 1 13 3 15c-27 -27 -15 -16 -39 -43c-17 -18 -34 -40 -54 -56c-2 -2 -5 -3 -7 -3c-6 1 -8 5 -8 11c1 10 6 15 13 22c27 34 41 44 74 77c4 4 23 18 24 23c0 6 1 12 2 17c0 6 1 12 2 17l3 24l1 2c4 36 5 42 6 78
c0 5 -1 23 -8 23c-16 -4 -28 -15 -39 -24c-32 -25 -61 -52 -88 -83c-2 -3 -7 -10 -11 -10c-3 0 -5 3 -5 5v2c17 28 42 46 63 67s43 41 67 57c6 5 13 9 21 9c10 0 18 -6 24 -13c13 -18 17 -41 17 -64s-2 -34 -4 -55c31 31 31 34 69 65c1 1 2 1 3 1c5 -1 4 0 6 -5l-2 -4
l-80 -85v-3c-3 -20 -6 -39 -8 -59c-2 -13 -5 -27 -5 -40c3 -29 8 -41 36 -41c26 1 50 13 72 26c59 40 64 43 114 95c12 12 15 25 26 28c4 -1 6 -1 6 -5s-1 -5 -2 -6c-20 -27 -42 -51 -67 -72c-41 -35 -88 -71 -142 -83c-6 -2 -13 -3 -20 -3z" />
    <glyph glyph-name="y" unicode="y" horiz-adv-x="329" 
d="M-722 -952c-21 0 -42 7 -58 21c-23 22 -27 49 -28 82c0 152 171 335 319 452c44 37 58 43 109 79c66 44 91 54 151 83c45 157 80 284 103 437v4c-50 -50 -27 -28 -83 -77c-39 -32 -86 -78 -140 -78c-31 0 -56 25 -56 62c0 47 19 100 39 139c5 11 25 44 42 44
c9 0 15 -9 15 -18c0 -6 -2 -13 -4 -18c-18 -47 -54 -103 -54 -156c0 -19 11 -32 31 -32c38 4 94 47 94 47c40 32 73 58 110 101c4 5 13 11 19 11c8 0 12 -9 12 -19v-16c0 -39 -6 -78 -12 -117c-14 -107 -43 -205 -72 -296c42 15 90 35 133 35c7 0 13 0 13 -7
c0 -4 -4 -8 -8 -8c-54 -3 -93 -18 -143 -38c-41 -130 -83 -259 -154 -376c-67 -109 -154 -206 -255 -285c-33 -26 -76 -56 -123 -56zM-729 -935c19 0 40 8 57 17c49 26 91 62 130 101c146 146 232 322 294 517c4 15 9 31 14 46c-75 -34 -159 -89 -229 -144
c-112 -85 -226 -195 -293 -320c-23 -43 -38 -84 -39 -132c0 -44 27 -85 66 -85z" />
    <glyph glyph-name="z" unicode="z" horiz-adv-x="368" 
d="M-585 -887c-30 0 -58 10 -72 36c-6 12 -7 25 -7 38c4 139 97 255 190 343c101 96 224 188 365 228l4 2c6 2 8 30 8 58c0 27 -2 53 -2 59c-5 45 -19 90 -55 119c-14 12 -53 17 -54 40c0 6 3 13 7 17c43 67 99 131 123 208c3 9 4 16 4 22c0 23 -18 31 -40 31
c-20 0 -45 -7 -63 -15c-59 -27 -112 -69 -150 -122c-2 2 -3 4 -3 7c1 4 3 9 6 12c46 62 110 109 183 135c14 4 29 9 43 9c38 0 59 -31 60 -72c0 -22 -8 -43 -19 -63c-32 -64 -69 -117 -116 -169c74 -48 107 -128 107 -211c0 -19 -2 -38 -5 -57c8 0 16 2 24 3l25 1
c67 0 134 -24 186 -67c4 -4 11 -14 11 -21c0 -4 -1 -6 -6 -6c-10 1 -11 2 -19 8c-70 52 -111 63 -193 66c-13 0 -18 0 -30 -3c-3 -4 -3 -16 -4 -20c-29 -191 -158 -382 -302 -510c-47 -41 -99 -79 -158 -98c-15 -5 -32 -8 -48 -8zM-598 -861c31 0 39 6 67 17
c105 55 171 123 256 228l34 48c64 100 98 155 128 287c2 7 4 14 5 21c-1 -1 -2 -1 -3 -1c-138 -46 -228 -114 -325 -202c-41 -39 -24 -19 -62 -62c-9 -7 -16 -18 -24 -28c-38 -38 -28 -35 -63 -88c-26 -46 -27 -45 -42 -83c-2 -7 -4 -13 -7 -19c-5 -17 -8 -34 -10 -51
c0 -32 2 -56 30 -65c3 -1 6 -2 10 -2h6z" />
    <glyph glyph-name="braceleft" unicode="{" horiz-adv-x="317" 
d="M139 51h-1c-12 2 -25 4 -37 7c-11 3 -23 7 -34 12l-8 4c-7 3 -13 7 -18 12c-14 10 -22 25 -28 41c-4 11 -6 22 -7 34v1c-1 0 -1 0 -1 1l-2 27l1 9c0 12 1 25 3 37s4 24 7 35c2 11 5 21 8 32c3 7 5 15 8 23c2 7 5 13 6 20l-4 3c-5 2 -9 5 -12 9c-4 4 -7 9 -10 14l-6 17
c-2 7 -4 14 -4 21c0 12 8 21 16 29s16 16 23 25c13 14 26 28 38 43c12 14 24 27 35 42c14 18 28 38 41 58c12 19 24 38 37 57l22 30c11 14 23 27 38 36c4 3 9 5 13 7c5 2 9 3 14 3h4c4 0 8 -1 12 -2c6 -1 12 -2 18 -4c3 -1 6 -3 6 -7c0 -3 -3 -6 -6 -6l-9 -1
c-6 0 -11 1 -16 2h-7c-2 0 -4 -1 -7 -2c-4 -2 -8 -4 -12 -7c-9 -7 -16 -16 -23 -25l-20 -27l-17 -28l-19 -32l-19 -30l-28 -40c0 1 1 2 2 3l-24 -31l-46 -52l-24 -23c-5 -5 -11 -10 -15 -15c-1 -1 -2 -2 -2 -3l-1 -2c0 -2 0 -4 1 -6c0 -5 1 -9 3 -14l7 -12l5 -4
c2 -2 4 -3 7 -4c0 -1 1 -1 2 -1c1 -1 3 -1 5 -3c1 0 3 -1 4 -3c2 -2 3 -4 4 -7c1 -2 1 -5 1 -7v-3c0 -2 0 -4 -1 -7c0 -3 -1 -5 -2 -8c-2 -11 -5 -22 -8 -33c-6 -22 -12 -44 -15 -66l-2 -9c-1 -11 -2 -23 -2 -34s0 -22 2 -33c0 -4 1 -8 2 -12c1 -6 3 -12 5 -18
c2 -5 5 -10 8 -14c4 -4 7 -8 12 -12s12 -8 18 -12c4 -2 8 -4 12 -5c6 -3 13 -5 20 -7c6 -2 13 -3 20 -4c2 0 4 0 6 -1c3 0 5 0 7 -2c1 -2 2 -4 2 -7c0 -2 -1 -4 -2 -6c-2 -1 -4 -3 -6 -3z" />
    <glyph glyph-name="bar" unicode="|" horiz-adv-x="305" 
d="M188 547v0v-1v1zM294 742c-3 -9 -6 -18 -10 -27c-3 -10 -7 -20 -11 -30c-1 -3 -3 -7 -4 -10l-6 -15c-2 -4 -4 -8 -5 -12c-2 -5 -3 -9 -5 -13c-4 -8 -7 -17 -10 -25c-2 -5 -4 -9 -6 -14c-1 -4 -3 -8 -5 -12c-3 -9 -7 -18 -11 -27c-7 -19 -15 -39 -22 -58l-45 -114
c-15 -39 -29 -77 -44 -116c-14 -38 -28 -75 -41 -113c-7 -18 -14 -37 -20 -55c-3 -10 -7 -19 -10 -29c-3 -9 -7 -18 -10 -27c-4 -10 -8 -20 -11 -30c-2 -4 -5 -7 -10 -7c0 0 -1 0 -2 1c-5 1 -8 6 -7 11c5 20 10 39 16 59c6 19 13 38 19 57c12 38 25 76 39 113
c13 39 28 77 42 115s29 76 44 113c9 23 19 46 28 69h1v0v1c2 5 5 11 7 17v0l1 1c-1 -1 -1 -1 -1 -2c0 1 1 2 1 3s1 2 1 3c8 18 16 37 25 55c8 20 17 39 26 58c4 8 8 16 12 25c3 7 7 15 10 22l12 24l6 9c1 2 3 5 4 7c2 2 5 4 8 4c1 -1 3 -2 3 -3c0 -3 -1 -6 -1 -8l-3 -6
c-1 -5 -3 -10 -5 -14zM194 561v1v-1z" />
    <glyph glyph-name="braceright" unicode="}" horiz-adv-x="208" 
d="M181 366v3v-2v-1zM181 633v-1v1zM175 229l1 1zM201 290c2 -2 4 -4 5 -7c1 -2 2 -5 2 -7c0 -4 -1 -6 -2 -9s-3 -5 -5 -8c-4 -4 -8 -9 -12 -13c-4 -5 -8 -9 -11 -14c-1 0 -1 -1 -2 -2s-1 -2 -2 -3c0 1 1 2 1 2c-13 -17 -24 -35 -34 -54s-19 -38 -31 -55
c-4 -5 -7 -10 -11 -14c-3 -4 -6 -7 -10 -11c-6 -6 -13 -12 -20 -18c-14 -13 -29 -26 -44 -39c-1 0 -2 -1 -3 -2c-2 -1 -5 -2 -7 -2c-4 0 -8 2 -10 4c-3 3 -5 7 -5 11c0 3 2 8 5 10c13 11 26 22 38 34c5 6 11 11 16 17c6 6 11 12 17 18c2 4 5 7 8 11s5 9 8 14l15 27
c10 19 21 39 34 56c6 10 14 19 21 27c4 4 7 8 10 11c2 2 4 3 6 5v0c-1 2 -2 4 -2 6c-3 5 -5 11 -7 16c-3 10 -6 20 -8 30c-5 20 -8 41 -11 61c-2 12 -4 23 -5 35c-1 11 -2 22 -1 33c0 10 0 21 1 32c0 11 1 22 2 33l6 57c1 9 2 18 2 27c1 12 1 23 0 34c-1 5 -2 9 -3 14
c-1 1 -2 3 -3 4l-3 3c-2 2 -4 3 -6 4c-4 1 -8 2 -12 4c-4 1 -8 3 -12 4c-6 3 -11 5 -16 10c-2 1 -4 3 -4 6c-1 1 -1 3 -1 4c0 2 0 3 1 4c1 2 3 3 5 3c1 0 2 0 3 -1l2 -2l1 -1c5 -3 10 -5 14 -8c3 -1 7 -3 10 -4s5 -2 8 -3c4 -1 7 -2 11 -3s7 -3 11 -5c4 -3 7 -7 10 -11
s4 -9 6 -13c2 -5 3 -9 3 -14v2c0 -3 1 -5 1 -8v-2v-1v1c2 -11 2 -21 2 -32s-1 -22 -1 -33c-2 -22 -3 -44 -4 -66c-1 -10 -2 -21 -2 -32c-1 -11 -1 -22 -1 -34c1 -10 1 -21 2 -31s2 -21 3 -31c1 -1 1 -3 1 -4v2v-3v1c1 -11 3 -22 5 -33c3 -11 5 -21 9 -31c2 -4 4 -9 6 -13z
M179 234c0 0 0 1 1 1c-1 0 -1 -1 -1 -1zM194 305c1 -1 1 -1 1 -2c0 1 0 1 -1 2z" />
    <glyph glyph-name="asciitilde" unicode="~" horiz-adv-x="268" 
d="M253 378c5 2 10 1 13 -3c2 -4 1 -10 -4 -13c-8 -4 -17 -8 -27 -11c-9 -3 -18 -5 -28 -7c-3 0 -6 0 -9 -1h-3c-4 0 -7 1 -11 1c-5 1 -10 3 -15 5c-4 2 -8 4 -11 6c-5 3 -10 7 -14 11c-12 9 -23 18 -35 27c0 0 -1 0 -1 1c-6 4 -13 9 -20 12c-4 2 -8 3 -12 3
c-3 1 -7 1 -11 0c-5 -1 -10 -2 -15 -4c-4 -2 -8 -4 -12 -7l-6 -6c-3 -2 -5 -5 -7 -8l-9 -12c-1 -3 -2 -5 -3 -7c-2 -3 -4 -6 -7 -6s-5 2 -6 4c0 2 1 5 1 7c1 2 3 5 4 7c2 5 5 9 8 13s7 8 11 12c3 3 7 7 12 10c3 3 8 5 12 7c7 4 14 7 22 8c9 1 17 2 25 0c6 -1 12 -3 17 -6
c13 -6 24 -14 34 -23c10 -8 18 -17 28 -24c4 -3 8 -6 13 -8c2 -1 5 -2 7 -3c5 0 10 0 15 1c12 2 23 5 35 9c3 2 6 3 9 5zM74 409h2h-2zM110 392c0 0 1 0 1 -1c0 1 -1 1 -1 1zM242 373h2h-2zM244 373v0v0z" />
    <glyph glyph-name="exclamdown" unicode="&#xa1;" horiz-adv-x="97" 
d="M123 758c6 0 12 -6 12 -13c-1 -14 -2 -28 -4 -42c-1 -14 -2 -28 -4 -42c-2 -15 -4 -30 -7 -45c-2 -14 -4 -28 -7 -42c-5 -29 -11 -57 -17 -86c-7 -29 -15 -57 -23 -86c-16 -56 -33 -111 -51 -167c-18 -55 -37 -111 -59 -165c-6 -16 -13 -31 -20 -46c-4 -7 -7 -14 -11 -20
c-3 -5 -6 -9 -9 -12c-4 -4 -8 -8 -14 -9l-5 -1l-6 2c-4 2 -6 5 -7 9c-1 2 -1 4 -1 6l1 9c0 4 1 7 2 11c2 6 5 12 7 19c5 13 10 27 16 40l30 81c21 55 41 111 60 167l27 84c9 27 17 55 25 82c8 29 15 57 22 86c7 28 13 55 18 83c3 18 7 35 9 53l3 31c0 4 1 7 4 9c2 3 5 4 9 4
zM129 918c5 0 9 -1 12 -3c8 -5 12 -13 12 -21l-1 -6c-1 -4 -3 -8 -6 -11l-5 -4c-2 0 -4 -1 -5 -2l-6 -1l-7 1c-5 2 -6 2 -10 6c-3 3 -5 7 -6 11l-1 6l1 7l2 5c2 4 5 7 9 9c3 2 7 3 11 3z" />
    <glyph glyph-name="cent" unicode="&#xa2;" horiz-adv-x="302" 
d="M-34 257v0zM183 573c1 -8 -33 -70 -37 -78c17 -20 25 -54 21 -76c-5 -24 -10 -16 -10 -14c0 0 4 19 -3 45c-2 10 -6 19 -12 28c-4 5 -3 5 -10 -8c-36 -64 -130 -222 -128 -223c26 -17 68 2 85 14c5 3 12 -2 10 -8c-1 -6 -54 -38 -93 -25c-18 5 -1 16 -45 -55
c-11 -16 -22 -4 -19 4c30 83 41 60 27 77c-87 98 46 271 135 263c41 -4 8 -28 55 40l12 16c7 7 12 3 12 0zM-15 265c0 0 29 55 134 229c-64 20 -195 -145 -134 -229zM157 435v1s0 1 0 -1z" />
    <glyph glyph-name="sterling" unicode="&#xa3;" horiz-adv-x="491" 
d="M50 118v-1v1zM461 661c6 -35 -14 -88 -31 -119c-25 -47 -28 -29 -26 -27c0 1 23 32 36 79c11 42 15 92 -27 100c-92 9 -159 -237 -185 -319c85 0 90 2 90 -8c0 -11 -3 -9 -95 -7c-34 -106 -62 -197 -123 -263c109 -30 215 -91 298 -57c29 12 36 21 41 12c2 -3 1 -7 -3 -9
c-45 -29 -84 -48 -170 -27c-105 26 -187 61 -192 57c-24 -19 -59 -46 -81 -24c-17 16 5 68 87 53c70 76 89 159 115 258c-43 1 -51 2 -51 10s4 6 55 6c113 430 251 358 262 285zM51 75c4 3 9 5 -11 5c-26 1 -37 -14 -35 -21c1 -1 6 -2 10 -3c10 -1 25 12 36 19zM174 221
c0 0 1 0 0 0zM175 222c0 -1 0 -1 -1 -1c0 0 1 0 1 1z" />
    <glyph glyph-name="currency" unicode="&#xa4;" horiz-adv-x="276" 
d="M212 405c1 1 2 2 3 1c-1 0 -2 0 -3 -1zM194 330h1v0h-1zM103 468c0 1 1 1 1 2c0 -1 0 -2 -1 -2zM195 330v0h-1h1v0zM253 417c6 0 9 -9 3 -13c-4 -2 -31 -12 -40 -11c0 -22 -8 -44 -21 -63v0v0h-1h1c-15 -22 -36 -40 -56 -50c4 -4 22 -48 5 -48c-11 0 -15 28 -16 38
c-1 4 -1 4 1 5h-1v0c-1 0 -1 -1 -3 -1c-91 -28 -139 106 -34 187v0s0 1 1 1c0 0 -1 0 -1 -1c-5 4 -6 13 -6 18c-4 33 -4 44 6 44c8 0 10 -6 12 -34c1 -13 2 -16 0 -19l1 1v-1c0 -1 -1 -1 -1 -2c1 0 1 1 1 2s1 2 6 4c9 5 26 9 34 5c3 10 60 13 71 -72v-1c-1 1 -2 0 -3 -1
c1 1 2 1 3 1v-1v0c0 1 0 2 1 2c3 0 30 9 37 10zM103 468c-1 -4 -2 -6 -3 -7c1 1 3 3 3 4v3zM128 275c0 2 0 4 1 5c0 -1 0 -1 -1 -1c-1 -2 0 -3 0 -4zM204 382c2 22 -9 89 -53 88h-4c2 2 -1 1 0 0c-1 0 -3 -1 -6 -3c-29 -14 -46 -36 -46 -37c0 0 0 1 1 2
c-98 -130 9 -190 75 -115c19 22 29 34 33 65v0zM215 405c0 -1 1 -2 1 -3c0 1 -1 2 -1 3zM216 402c0 1 -1 2 -1 3c0 -1 1 -2 1 -3zM215 406c-1 1 -2 0 -3 -1c1 1 2 1 3 1zM216 402c0 1 -1 2 -1 3c0 -1 1 -2 1 -3zM104 470c0 -1 -1 -1 -1 -2c1 0 1 1 1 2zM27 320
c4 1 8 -2 9 -5c2 -8 -5 -10 -32 -15h-5c-4 0 -7 4 -5 9c2 3 4 1 33 11zM-1 312v0z" />
    <glyph glyph-name="yen" unicode="&#xa5;" horiz-adv-x="461" 
d="M129 480v0zM106 50v0v0v0zM203 439c123 39 230 295 187 123c-11 -44 -52 -184 -71 -240c39 -2 45 -2 45 -10c0 -10 -10 -6 -47 -4c-2 0 -3 -1 -3 1c1 2 2 4 3 7c-2 -4 -3 -6 -3 -7v-1c-5 -15 -11 -30 -20 -51h-1c1 0 1 0 1 -1c0 2 1 1 8 1c5 0 33 -1 38 -2
c7 -3 8 -14 -5 -14c-39 4 -48 -2 -46 4c0 -1 -1 -2 -1 -2c-41 -97 -120 -219 -225 -217c-54 1 -91 53 -72 58c9 3 6 -6 16 -19c23 -29 63 -29 99 -15v0v0v0v0v1h1v0c8 3 17 8 24 12c51 32 110 125 134 180c-18 0 -48 -1 -57 2c-11 0 -6 15 2 12c11 1 36 1 47 1
c9 0 13 1 14 -1v1c15 37 16 48 22 50h-3c-9 0 -29 1 -37 1c-13 1 -12 10 -4 13c12 4 32 2 43 2c2 0 3 0 3 -1v1c15 45 49 164 78 259c-45 -61 -125 -170 -205 -163c-134 14 -25 282 -1 260c13 -12 -54 -140 -37 -208c10 -34 39 -44 73 -33zM293 255v-1v1zM293 253v0v0v0z
M317 316c-2 -4 -3 -6 -3 -7c1 2 2 4 3 7zM317 316c-2 -4 -3 -6 -3 -7c1 2 2 4 3 7zM293 253v0v0v0zM293 255v-1v1zM293 253v0v0v0zM293 255v-1v1z" />
    <glyph glyph-name="brokenbar" unicode="&#xa6;" horiz-adv-x="147" 
d="M142 679c1 -9 -27 -157 -43 -157c-13 0 -8 15 -7 27c-2 -16 4 38 31 119c1 2 4 11 6 14c5 6 12 4 13 -3zM29 201c13 39 31 17 -13 -124c-3 -11 -20 -8 -18 5c6 39 22 93 31 119z" />
    <glyph glyph-name="section" unicode="&#xa7;" horiz-adv-x="371" 
d="M337 614v1c0 1 0 0 0 -1zM196 412h-1v1v-1v0h1zM218 261l-1 -1zM194 417v0zM148 222c1 -1 1 -2 1 -2c0 1 -1 1 -1 2zM183 443v1v-1zM185 437v0v0v0zM185 438v0v-1v1zM195 412h1h-1v0v1v0v0v-1zM217 260l1 1zM337 614v0zM276 493h1h-1zM217 260l1 1zM217 260l1 1zM338 654
c7 -90 -61 -164 -65 -164c-24 0 69 71 50 174c-9 46 -56 61 -91 47c-60 -27 -82 -109 -52 -205c16 -49 32 -78 51 -139c10 -35 9 -92 4 -109c-12 -37 -47 -59 -72 -59c-4 0 -5 0 -7 3c0 -1 1 -1 1 -2h-2c4 -1 4 -4 12 -27c14 -40 8 -76 1 -88c-12 -21 -65 -55 -134 -41
c-50 10 -60 72 -31 108c4 5 14 0 10 -8c-3 -7 -9 -15 -11 -32c-9 -72 122 -60 146 -13c22 65 -60 155 -55 236c6 90 82 125 87 113c0 -1 1 -1 1 -2v0v0v0v0v0v0v0v0v0v0c0 1 -1 3 -1 4c0 -1 1 -1 1 -1c-1 1 -2 1 -2 1h1v0h-1c-34 81 -56 159 -5 232c32 46 65 54 103 47
c34 -7 58 -32 61 -75zM181 445v0v0v0v0v0v0v0v0v0zM181 445v0v1v-1zM217 260l1 1zM184 438v0c0 2 -1 3 -2 5h1h-1v0v1v0v0v0v0v0v0v1v-1v1v0v0v0v-3c-4 -3 -39 -17 -58 -62c-21 -50 4 -109 24 -158v0c0 -1 1 -1 1 -2c0 0 0 1 -1 2c1 0 3 -2 10 -3c24 -2 58 21 64 61
c6 50 -8 88 -26 132h-1v1v0v0v0v0v0c0 1 -1 3 -1 4c-3 6 -6 13 -9 20v0v0v1h-1zM181 445h1v0v0v0h-1zM183 443v1v-1zM337 614v0zM337 614v0zM185 437v1v0v-1zM181 445v0v0v0v0v0zM181 445v0v0v0v0zM181 446v-1v0v1zM180 450c0 -1 1 -3 1 -4v0v0v0v0v0v0v0v0v0v0
c0 1 -1 1 -1 2v0v0v1v0v0v1zM181 446v0v0v0v0zM181 446v0v0v0v0v0zM181 445v1v-1v0zM181 445v0v0zM181 445v0v0v0zM182 444v1v0v0v0v0v0v-1zM182 444v0zM122 51c1 0 1 0 1 1c0 -1 0 -1 -1 -1zM124 52v0v0zM124 52v0zM-6 136c0 1 0 1 1 1c0 1 -1 -1 -1 -1zM124 52h1
c2 1 2 1 -1 0zM125 52h-1h1zM181 446v0v0zM181 445v0v0v0v0zM181 445v0v0v0v0v0zM182 445h-1h1zM182 445v0v0zM183 443v1v-1zM182 444v0zM182 445v0v-1v1v0v0zM182 445v0v0zM182 445v0zM181 445v0v0v0zM181 445v0v0v0v0zM181 445v1v-1v0zM180 450c0 -1 1 -3 1 -4v0v0v0v0v0
v0v0v0v0c0 1 -1 1 -1 2v0v0v1v0v0l-1 1h1v0zM180 449v0l-1 1zM182 445v0zM148 222c1 -1 1 -2 1 -2c0 1 -1 1 -1 2z" />
    <glyph glyph-name="dieresis" unicode="&#xa8;" horiz-adv-x="218" 
d="M-4 661c6 20 37 10 27 -11c-8 -15 -31 -5 -27 11zM192 668c18 0 18 -27 0 -27s-18 27 0 27z" />
    <glyph glyph-name="copyright" unicode="&#xa9;" horiz-adv-x="597" 
d="M143 400c-21 -50 -8 -80 29 -109c18 -13 20 -14 42 -17c43 -5 46 1 51 -2c6 -3 4 -12 -2 -13c-95 -16 -186 52 -151 146c17 45 54 83 102 88c15 2 40 -7 38 -18c0 -7 -8 -5 -16 -5c-43 -1 -79 -37 -93 -70zM248 470v0v0zM143 401v-2v2zM143 399c-1 0 -1 -1 -1 -2
c0 1 0 2 1 2zM140 394c1 0 1 1 1 1s0 -1 -1 -1zM-58 318v0zM-58 318v0c1 -2 1 -2 0 0zM-58 319v-1v1zM443 428c32 -136 -78 -316 -242 -316c-95 0 -182 52 -226 120c-85 131 -13 346 166 406c61 20 159 8 147 -11c-5 -10 -69 15 -139 -11c-200 -74 -271 -370 -26 -471
c175 -74 340 117 305 268c-27 119 -148 193 -149 195c-5 8 3 17 11 15c37 -11 131 -102 153 -195zM281 624c-1 0 -1 1 -1 0h1zM280 624c-1 1 -1 1 0 0zM270 626h-2h2zM77 578c0 -1 0 -1 -1 -1c1 0 1 0 1 1zM-58 323v-1v1zM-31 324v0v0zM-31 324c0 -2 1 -3 0 -1v1zM-17 275
v-1v1zM9 229h1h-1zM61 179l1 -1zM109 626c1 0 1 0 2 1c-2 -1 -1 -1 -2 -1zM-60 333v4v-4zM236 132c-1 -1 -1 -1 -2 -1c1 0 0 0 2 1zM108 625c1 1 1 1 2 1c-1 0 -1 0 -2 -1zM-31 325v0zM373 215l-1 -1s0 1 1 1z" />
    <glyph glyph-name="paragraph" unicode="&#xb6;" horiz-adv-x="415" 
d="M159 -27c-7 0 -11 3 -11 12c0 33 34 229 79 386c72 248 66 230 75 258c-82 8 -91 8 -91 8c-3 -17 -54 -275 -97 -474c-41 -187 -29 -146 -33 -158c-2 -5 -6 -8 -10 -8c-5 0 -10 4 -10 12v3c8 61 74 381 74 381c-4 -8 -20 -13 -34 -13c-27 0 -57 17 -65 69
c0 13 -2 23 -2 35c0 108 67 177 120 177l49 -5s187 -10 197 -17c3 -2 4 -5 4 -8c0 -4 -4 -9 -11 -9c-4 0 -76 4 -76 7v-1c-12 -70 -69 -282 -86 -350c-34 -133 -56 -284 -63 -300c-1 -3 -5 -5 -9 -5z" />
    <glyph glyph-name="periodcentered" unicode="&#xb7;" horiz-adv-x="113" 
d="M80 262c-20 0 -30 15 -30 30s10 30 30 30s30 -15 30 -30s-10 -30 -30 -30z" />
    <glyph glyph-name="periodcentered" unicode="&#x2219;" horiz-adv-x="113" 
d="M80 262c-20 0 -30 15 -30 30s10 30 30 30s30 -15 30 -30s-10 -30 -30 -30z" />
    <glyph glyph-name="guillemotright" unicode="&#xbb;" horiz-adv-x="461" 
d="M105 86h-7v18l100 130l-100 130v18h7l167 -148zM258 86h-7v18l100 130l-100 130v18h7l167 -148z" />
    <glyph glyph-name="questiondown" unicode="&#xbf;" horiz-adv-x="421" 
d="M253 585l-1 -3s0 2 1 3zM328 784c9 0 13 -7 13 -19c0 -16 -7 -40 -14 -66c-22 -79 -46 -155 -83 -227c-68 -133 -176 -252 -204 -338c-8 -24 -12 -45 -12 -62c0 -43 23 -67 59 -67c48 0 121 41 200 131c17 19 35 41 49 62c4 6 24 40 24 47c0 3 3 5 5 5s3 -1 3 -5
c0 -8 -7 -28 -36 -69c-49 -71 -168 -185 -253 -185c-18 0 -33 4 -47 15c-23 18 -32 49 -32 80c0 23 4 46 11 65c19 54 48 102 96 174c225 339 191 459 221 459zM199 53l-1 -1zM335 873c9 0 14 -7 14 -14s-5 -14 -14 -14c-10 0 -14 7 -14 14s4 14 14 14z" />
    <glyph glyph-name="Agrave" unicode="&#xc0;" 
 />
    <glyph glyph-name="Aacute" unicode="&#xc1;" 
 />
    <glyph glyph-name="Acircumflex" unicode="&#xc2;" 
 />
    <glyph glyph-name="Atilde" unicode="&#xc3;" 
 />
    <glyph glyph-name="Adieresis" unicode="&#xc4;" 
 />
    <glyph glyph-name="Aring" unicode="&#xc5;" 
 />
    <glyph glyph-name="AE" unicode="&#xc6;" horiz-adv-x="1283" 
 />
    <glyph glyph-name="Ccedilla" unicode="&#xc7;" horiz-adv-x="1399" 
 />
    <glyph glyph-name="Egrave" unicode="&#xc8;" horiz-adv-x="667" 
 />
    <glyph glyph-name="Eacute" unicode="&#xc9;" horiz-adv-x="667" 
 />
    <glyph glyph-name="Ecircumflex" unicode="&#xca;" horiz-adv-x="667" 
 />
    <glyph glyph-name="Edieresis" unicode="&#xcb;" horiz-adv-x="667" 
 />
    <glyph glyph-name="Igrave" unicode="&#xcc;" horiz-adv-x="381" 
 />
    <glyph glyph-name="Iacute" unicode="&#xcd;" horiz-adv-x="381" 
 />
    <glyph glyph-name="Icircumflex" unicode="&#xce;" horiz-adv-x="381" 
 />
    <glyph glyph-name="Idieresis" unicode="&#xcf;" horiz-adv-x="381" 
 />
    <glyph glyph-name="Ntilde" unicode="&#xd1;" horiz-adv-x="596" 
 />
    <glyph glyph-name="Ograve" unicode="&#xd2;" horiz-adv-x="475" 
 />
    <glyph glyph-name="Oacute" unicode="&#xd3;" horiz-adv-x="475" 
 />
    <glyph glyph-name="Ocircumflex" unicode="&#xd4;" horiz-adv-x="475" 
 />
    <glyph glyph-name="Otilde" unicode="&#xd5;" horiz-adv-x="475" 
 />
    <glyph glyph-name="Odieresis" unicode="&#xd6;" horiz-adv-x="475" 
 />
    <glyph glyph-name="Ugrave" unicode="&#xd9;" horiz-adv-x="579" 
 />
    <glyph glyph-name="Uacute" unicode="&#xda;" horiz-adv-x="579" 
 />
    <glyph glyph-name="Ucircumflex" unicode="&#xdb;" horiz-adv-x="579" 
 />
    <glyph glyph-name="Udieresis" unicode="&#xdc;" horiz-adv-x="579" 
 />
    <glyph glyph-name="Yacute" unicode="&#xdd;" horiz-adv-x="751" 
 />
    <glyph glyph-name="agrave" unicode="&#xe0;" horiz-adv-x="674" 
 />
    <glyph glyph-name="aacute" unicode="&#xe1;" horiz-adv-x="674" 
 />
    <glyph glyph-name="acircumflex" unicode="&#xe2;" horiz-adv-x="674" 
 />
    <glyph glyph-name="atilde" unicode="&#xe3;" horiz-adv-x="674" 
 />
    <glyph glyph-name="adieresis" unicode="&#xe4;" horiz-adv-x="674" 
 />
    <glyph glyph-name="aring" unicode="&#xe5;" horiz-adv-x="674" 
 />
    <glyph glyph-name="ae" unicode="&#xe6;" horiz-adv-x="1072" 
 />
    <glyph glyph-name="egrave" unicode="&#xe8;" horiz-adv-x="410" 
 />
    <glyph glyph-name="eacute" unicode="&#xe9;" horiz-adv-x="410" 
 />
    <glyph glyph-name="ecircumflex" unicode="&#xea;" horiz-adv-x="410" 
 />
    <glyph glyph-name="edieresis" unicode="&#xeb;" horiz-adv-x="410" 
 />
    <glyph glyph-name="igrave" unicode="&#xec;" horiz-adv-x="319" 
 />
    <glyph glyph-name="iacute" unicode="&#xed;" horiz-adv-x="319" 
 />
    <glyph glyph-name="icircumflex" unicode="&#xee;" horiz-adv-x="319" 
 />
    <glyph glyph-name="idieresis" unicode="&#xef;" horiz-adv-x="319" 
 />
    <glyph glyph-name="ntilde" unicode="&#xf1;" horiz-adv-x="502" 
 />
    <glyph glyph-name="ograve" unicode="&#xf2;" horiz-adv-x="305" 
 />
    <glyph glyph-name="oacute" unicode="&#xf3;" horiz-adv-x="304" 
 />
    <glyph glyph-name="ocircumflex" unicode="&#xf4;" horiz-adv-x="305" 
 />
    <glyph glyph-name="otilde" unicode="&#xf5;" horiz-adv-x="305" 
 />
    <glyph glyph-name="odieresis" unicode="&#xf6;" horiz-adv-x="305" 
 />
    <glyph glyph-name="ugrave" unicode="&#xf9;" horiz-adv-x="416" 
 />
    <glyph glyph-name="uacute" unicode="&#xfa;" horiz-adv-x="416" 
 />
    <glyph glyph-name="ucircumflex" unicode="&#xfb;" horiz-adv-x="416" 
 />
    <glyph glyph-name="udieresis" unicode="&#xfc;" horiz-adv-x="416" 
 />
    <glyph glyph-name="yacute" unicode="&#xfd;" horiz-adv-x="329" 
 />
    <glyph glyph-name="ydieresis" unicode="&#xff;" horiz-adv-x="329" 
 />
    <glyph glyph-name="Euro" unicode="&#x20ac;" horiz-adv-x="495" 
 />
    <glyph glyph-name="uniF001" unicode="&#xf001;" horiz-adv-x="1073" 
 />
    <glyph glyph-name="uniF001" unicode="&#xfb01;" horiz-adv-x="1073" 
 />
    <glyph glyph-name="uniF002" unicode="&#xf002;" horiz-adv-x="1081" 
 />
    <glyph glyph-name="uniF002" unicode="&#xfb02;" horiz-adv-x="1081" 
 />
    <glyph glyph-name="a.ss01" unicode="&#xe003;" horiz-adv-x="1290" 
 />
    <glyph glyph-name="b.ss01" unicode="&#xe004;" horiz-adv-x="1225" 
 />
    <glyph glyph-name="c.ss01" unicode="&#xe005;" horiz-adv-x="1065" 
 />
    <glyph glyph-name="d.ss01" unicode="&#xe006;" horiz-adv-x="1517" 
 />
    <glyph glyph-name="e.ss01" unicode="&#xe007;" horiz-adv-x="1357" 
 />
    <glyph glyph-name="f.ss01" unicode="&#xe008;" horiz-adv-x="1104" 
 />
    <glyph glyph-name="g.ss01" unicode="&#xe009;" horiz-adv-x="357" 
 />
    <glyph glyph-name="h.ss01" unicode="&#xe00a;" horiz-adv-x="1379" 
 />
    <glyph glyph-name="i.ss01" unicode="&#xe00b;" horiz-adv-x="1206" 
 />
    <glyph glyph-name="j.ss01" unicode="&#xe00c;" horiz-adv-x="199" 
 />
    <glyph glyph-name="k.ss01" unicode="&#xe00d;" horiz-adv-x="1343" 
 />
    <glyph glyph-name="l.ss01" unicode="&#xe00e;" horiz-adv-x="1258" 
 />
    <glyph glyph-name="m.ss01" unicode="&#xe00f;" horiz-adv-x="1626" 
 />
    <glyph glyph-name="n.ss01" unicode="&#xe010;" horiz-adv-x="1618" 
 />
    <glyph glyph-name="o.ss01" unicode="&#xe011;" horiz-adv-x="1297" 
 />
    <glyph glyph-name="p.ss01" unicode="&#xe012;" horiz-adv-x="1027" 
 />
    <glyph glyph-name="r.ss01" unicode="&#xe014;" horiz-adv-x="1247" 
 />
    <glyph glyph-name="s.ss01" unicode="&#xe015;" horiz-adv-x="1019" 
 />
    <glyph glyph-name="t.ss01" unicode="&#xe016;" horiz-adv-x="1596" 
 />
    <glyph glyph-name="u.ss01" unicode="&#xe017;" horiz-adv-x="1621" 
 />
    <glyph glyph-name="v.ss01" unicode="&#xe018;" horiz-adv-x="1239" 
 />
    <glyph glyph-name="w.ss01" unicode="&#xe019;" horiz-adv-x="1643" 
 />
    <glyph glyph-name="x.ss01" unicode="&#xe01a;" horiz-adv-x="1448" 
 />
    <glyph glyph-name="y.ss01" unicode="&#xe01b;" horiz-adv-x="305" 
 />
    <glyph glyph-name="z.ss01" unicode="&#xe01c;" horiz-adv-x="1365" 
 />
    <glyph glyph-name="a.ss02" unicode="&#xe01d;" horiz-adv-x="1680" 
 />
    <glyph glyph-name="b.ss02" unicode="&#xe01e;" horiz-adv-x="440" 
 />
    <glyph glyph-name="c.ss02" unicode="&#xe01f;" horiz-adv-x="1427" 
 />
    <glyph glyph-name="d.ss02" unicode="&#xe020;" horiz-adv-x="377" 
 />
    <glyph glyph-name="e.ss02" unicode="&#xe021;" horiz-adv-x="1447" 
 />
    <glyph glyph-name="f.ss02" unicode="&#xe022;" horiz-adv-x="402" 
 />
    <glyph glyph-name="g.ss02" unicode="&#xe023;" horiz-adv-x="1414" 
 />
    <glyph glyph-name="h.ss02" unicode="&#xe024;" horiz-adv-x="638" 
 />
    <glyph glyph-name="i.ss02" unicode="&#xe025;" horiz-adv-x="1376" 
 />
    <glyph glyph-name="j.ss02" unicode="&#xe026;" horiz-adv-x="1223" 
 />
    <glyph glyph-name="k.ss02" unicode="&#xe027;" horiz-adv-x="522" 
 />
    <glyph glyph-name="l.ss02" unicode="&#xe028;" horiz-adv-x="1090" 
 />
    <glyph glyph-name="m.ss02" unicode="&#xe029;" horiz-adv-x="1772" 
 />
    <glyph glyph-name="n.ss02" unicode="&#xe02a;" horiz-adv-x="1535" 
 />
    <glyph glyph-name="o.ss02" unicode="&#xe02b;" horiz-adv-x="1403" 
 />
    <glyph glyph-name="p.ss02" unicode="&#xe02c;" horiz-adv-x="1301" 
 />
    <glyph glyph-name="q.ss02" unicode="&#xe02d;" horiz-adv-x="1358" 
 />
    <glyph glyph-name="r.ss02" unicode="&#xe02e;" horiz-adv-x="1307" 
 />
    <glyph glyph-name="s.ss02" unicode="&#xe02f;" horiz-adv-x="1576" 
 />
    <glyph glyph-name="u.ss02" unicode="&#xe031;" horiz-adv-x="1525" 
 />
    <glyph glyph-name="v.ss02" unicode="&#xe032;" horiz-adv-x="1372" 
 />
    <glyph glyph-name="w.ss02" unicode="&#xe033;" horiz-adv-x="1786" 
 />
    <glyph glyph-name="x.ss02" unicode="&#xe034;" horiz-adv-x="1071" 
 />
    <glyph glyph-name="y.ss02" unicode="&#xe035;" horiz-adv-x="1393" 
 />
    <glyph glyph-name="z.ss02" unicode="&#xe036;" horiz-adv-x="1214" 
 />
    <glyph glyph-name="a_k" unicode="&#xe037;" horiz-adv-x="1231" 
 />
    <glyph glyph-name="b_k" unicode="&#xe038;" horiz-adv-x="938" 
 />
    <glyph glyph-name="c_k" unicode="&#xe039;" horiz-adv-x="915" 
 />
    <glyph glyph-name="e_k" unicode="&#xe03a;" horiz-adv-x="925" 
 />
    <glyph glyph-name="f_k" unicode="&#xe03b;" horiz-adv-x="830" 
 />
    <glyph glyph-name="h_k" unicode="&#xe03c;" horiz-adv-x="994" 
 />
    <glyph glyph-name="k_k" unicode="&#xe03d;" horiz-adv-x="985" 
 />
    <glyph glyph-name="l_k" unicode="&#xe03e;" horiz-adv-x="771" 
 />
    <glyph glyph-name="m_k" unicode="&#xe03f;" horiz-adv-x="1231" 
 />
    <glyph glyph-name="o_k" unicode="&#xe040;" horiz-adv-x="790" 
 />
    <glyph glyph-name="i_k" unicode="&#xe041;" horiz-adv-x="794" 
 />
    <glyph glyph-name="a_t_t" unicode="&#xe042;" horiz-adv-x="1501" 
 />
    <glyph glyph-name="h_e" unicode="&#xe043;" horiz-adv-x="943" 
 />
    <glyph glyph-name="i_t_t" unicode="&#xe044;" horiz-adv-x="1208" 
 />
    <glyph glyph-name="o_l_l" unicode="&#xe045;" horiz-adv-x="808" 
 />
    <glyph glyph-name="a_h" unicode="&#xe046;" horiz-adv-x="1286" 
 />
    <glyph glyph-name="b_h" unicode="&#xe047;" horiz-adv-x="1004" 
 />
    <glyph glyph-name="c_h" unicode="&#xe048;" horiz-adv-x="996" 
 />
    <glyph glyph-name="h_h" unicode="&#xe049;" horiz-adv-x="1163" 
 />
    <glyph glyph-name="i_h" unicode="&#xe04a;" horiz-adv-x="888" 
 />
    <glyph glyph-name="w_h" unicode="&#xe04b;" horiz-adv-x="1345" 
 />
    <glyph glyph-name="n_d" unicode="&#xe04c;" horiz-adv-x="860" 
 />
    <glyph glyph-name="e_n" unicode="&#xe04d;" horiz-adv-x="892" 
 />
    <glyph glyph-name="f_f" unicode="&#xe04e;" horiz-adv-x="771" 
 />
    <glyph glyph-name="o_f" unicode="&#xe050;" horiz-adv-x="593" 
 />
    <glyph glyph-name="o_h" unicode="&#xe051;" horiz-adv-x="872" 
 />
    <glyph glyph-name="i_n" unicode="&#xe052;" horiz-adv-x="786" 
 />
    <glyph glyph-name="o_n" unicode="&#xe053;" horiz-adv-x="859" 
 />
    <glyph glyph-name="o_p" unicode="&#xe054;" horiz-adv-x="595" 
 />
    <glyph glyph-name="o_r" unicode="&#xe055;" horiz-adv-x="610" 
 />
    <glyph glyph-name="s_s" unicode="&#xe056;" horiz-adv-x="735" 
 />
    <glyph glyph-name="u_t_t" unicode="&#xe057;" horiz-adv-x="1325" 
 />
    <glyph glyph-name="a_t" unicode="&#xe058;" horiz-adv-x="821" 
 />
    <glyph glyph-name="b_t" unicode="&#xe059;" horiz-adv-x="762" 
 />
    <glyph glyph-name="c_t" unicode="&#xe05a;" horiz-adv-x="632" 
 />
    <glyph glyph-name="h_t" unicode="&#xe05b;" horiz-adv-x="777" 
 />
    <glyph glyph-name="l_l" unicode="&#xe05c;" horiz-adv-x="481" 
 />
    <glyph glyph-name="m_t" unicode="&#xe05d;" horiz-adv-x="999" 
 />
    <glyph glyph-name="n_t" unicode="&#xe05e;" horiz-adv-x="813" 
 />
    <glyph glyph-name="o_t" unicode="&#xe05f;" horiz-adv-x="529" 
 />
    <glyph glyph-name="s_t" unicode="&#xe060;" horiz-adv-x="707" 
 />
    <glyph glyph-name="t_t" unicode="&#xe061;" horiz-adv-x="847" 
 />
  </font>
</defs>
</svg>
